<?xml version="1.0" standalone="no"?>
<!DOCTYPE svg PUBLIC "-//W3C//DTD SVG 1.1//EN" "http://www.w3.org/Graphics/SVG/1.1/DTD/svg11.dtd" >
<svg xmlns="http://www.w3.org/2000/svg">
<metadata>
This is a custom SVG webfont generated by Fontspring.
</metadata>
<defs>
<font id="GibsonSemiBold" horiz-adv-x="1282" >
<font-face units-per-em="2048" ascent="1638" descent="-410" />
<missing-glyph horiz-adv-x="403" />
<glyph unicode=" "  horiz-adv-x="403" />
<glyph unicode="&#x09;" horiz-adv-x="403" />
<glyph unicode="&#xa0;" horiz-adv-x="403" />
<glyph unicode="!" horiz-adv-x="667" d="M139 154q0 82 53.5 129t141.5 47q86 0 139 -47t53 -129t-53 -129.5t-139 -47.5q-88 0 -141.5 47.5t-53.5 129.5zM162 1413h244l-31 -979h-285z" />
<glyph unicode="&#x22;" horiz-adv-x="1056" d="M156 1413h203l-37 -510h-232zM598 1413h203l-37 -510h-231z" />
<glyph unicode="#" horiz-adv-x="1339" d="M84 434v174h244l49 289h-221v174h252l73 424h189l-74 -424h254l76 424h186l-74 -424h215v-174h-245l-50 -289h226v-174h-256l-74 -422h-188l73 422h-254l-73 -422h-189l74 422h-213zM516 608h254l49 289h-254z" />
<glyph unicode="$" d="M143 207l152 205q43 -68 134 -117t161 -51l6 342l-70 28q-127 53 -184 101q-143 111 -143 293q0 180 135 297q100 90 287 106l4 111h147l-2 -115q96 -8 190.5 -51t153.5 -115l-127 -203q-106 119 -239 138l-9 -328l129 -55q270 -121 271 -373q0 -190 -158 -316 q-51 -41 -128 -69.5t-138 -32.5l-4 -113h-148l4 109q-119 4 -234.5 59.5t-189.5 149.5zM485 1040q0 -88 105 -137l22 -10l6 285q-59 -4 -96 -41.5t-37 -96.5zM719 240q51 4 94 44t43 97q0 98 -98 147l-33 17z" />
<glyph unicode="%" horiz-adv-x="1769" d="M84 1061q0 164 102.5 265t264 101t264 -101t102.5 -265q0 -166 -102.5 -267.5t-264 -101.5t-264 102.5t-102.5 266.5zM301 1063q0 -80 39 -129t111 -49q74 0 114.5 49t40.5 129t-41 129t-114 49q-72 0 -111 -49t-39 -129zM375 35l880 1415l140 -84l-879 -1415zM952 340 q0 164 102.5 265.5t264.5 101.5t264.5 -101.5t102.5 -265.5t-102.5 -265.5t-264.5 -101.5t-264.5 101.5t-102.5 265.5zM1167 344q0 -80 40 -129t112 -49q74 0 114 49t40 129t-40 128t-114 48q-72 0 -112 -48t-40 -128z" />
<glyph unicode="&#x26;" horiz-adv-x="1542" d="M70 391q0 260 340 406q-45 49 -71 83.5t-50.5 96t-24.5 125.5q0 162 126 250t308 88q178 0 298 -86t120 -244q0 -115 -75.5 -208t-190.5 -154l186 -211q35 35 94.5 119.5t86.5 136.5l231 -127q-131 -211 -236 -316l322 -334v-16h-377l-139 152q-113 -92 -216.5 -134.5 t-236.5 -42.5q-211 0 -353 107.5t-142 308.5zM389 401q0 -80 58.5 -131t140.5 -51q147 0 254 119l-262 289l-41 -23q-150 -84 -150 -203zM567 1096q0 -53 68 -133l47 -52q45 29 70.5 48.5t55.5 59.5t30 81q0 57 -36 89t-97.5 32t-99.5 -34t-38 -91z" />
<glyph unicode="'" horiz-adv-x="716" d="M207 1413h203l-37 -510h-231z" />
<glyph unicode="(" horiz-adv-x="684" d="M96 627q0 303 91.5 537.5t234.5 443.5l205 -105q-92 -139 -172 -384t-80 -492q0 -250 80 -495t172 -384l-205 -104q-143 211 -234.5 445.5t-91.5 537.5z" />
<glyph unicode=")" horiz-adv-x="684" d="M57 -252q92 139 172 384t80 495q0 248 -79.5 492.5t-172.5 383.5l207 105q141 -211 232.5 -444.5t91.5 -536.5t-90 -536.5t-234 -446.5z" />
<glyph unicode="*" horiz-adv-x="1075" d="M129 1128l59 170l279 -114l-23 284h187l-23 -284l279 114l59 -170l-301 -79l203 -261l-146 -102l-165 277l-164 -277l-146 102l203 261z" />
<glyph unicode="+" horiz-adv-x="1435" d="M156 588v237h442v441h240v-441h442v-237h-442v-441h-240v441h-442z" />
<glyph unicode="," horiz-adv-x="667" d="M68 -287l174 586h215l-221 -586h-268z" />
<glyph unicode="-" horiz-adv-x="694" d="M61 422v256h572v-256h-572z" />
<glyph unicode="." horiz-adv-x="667" d="M139 154q0 82 53.5 129t141.5 47q86 0 139 -47t53 -129t-53 -129.5t-139 -47.5q-88 0 -141.5 47.5t-53.5 129.5z" />
<glyph unicode="/" horiz-adv-x="1110" d="M39 -113l844 1743l192 -86l-846 -1745z" />
<glyph unicode="0" d="M55 705q0 197 58.5 356.5t194.5 266t333 106.5t333 -106.5t194.5 -266.5t58.5 -356.5t-58.5 -356.5t-194.5 -266.5t-333 -106.5q-150 0 -265.5 60.5t-184 165t-102.5 232t-34 272.5zM381 710.5q0 -202.5 64.5 -326.5t195.5 -124t195.5 124t64.5 326.5t-64.5 324.5 t-195.5 122t-195.5 -122t-64.5 -324.5z" />
<glyph unicode="1" horiz-adv-x="958" d="M133 1186v227h576v-1413h-320v1186h-256z" />
<glyph unicode="2" d="M104 1200q14 31 67.5 80t176.5 101.5t268 52.5q238 0 376 -115t138 -303q0 -82 -23.5 -155t-74.5 -138.5t-84 -96.5l-94 -87q-14 -12 -20 -19l-293 -264h655v-256h-1036l-39 209l479 432q111 100 162 175t51 159q0 90 -61.5 144.5t-165.5 54.5q-190 0 -342 -191z" />
<glyph unicode="3" d="M100 213l152 197q51 -61 151.5 -119t194.5 -58q109 0 178.5 53.5t69.5 145.5q0 90 -63.5 140.5t-161.5 50.5h-125v231h125q86 0 137 43t51 123t-58.5 123t-146.5 43q-168 0 -338 -137l-123 208q92 82 203 129.5t285 47.5q203 0 347 -102.5t144 -274.5q0 -225 -202 -309 v-7q100 -27 173.5 -112.5t73.5 -214.5q0 -203 -160.5 -320t-390.5 -117q-193 0 -327 78t-189 158z" />
<glyph unicode="4" d="M45 283v241l641 893h267v-878h188v-256h-188v-283h-320v283h-688zM346 532h295v547z" />
<glyph unicode="5" d="M92 209l152 194q55 -78 153.5 -124t192.5 -46q104 0 185 61.5t81 178.5t-80 177.5t-186 60.5q-154 0 -258 -74l-144 86l109 690h827v-254h-587l-41 -254q72 31 188 31q84 0 168 -27.5t158.5 -80t121 -145.5t46.5 -210q0 -233 -169 -364.5t-397 -131.5q-193 0 -327 70 t-193 162z" />
<glyph unicode="6" d="M100 688q0 377 189 572q164 174 432 174q242 0 438 -138l-121 -217q-55 43 -138 74t-165 31q-121 0 -209 -84q-113 -113 -112 -332q131 145 356 145q176 0 305 -116.5t129 -315.5q0 -215 -143 -359.5t-385 -144.5q-291 0 -455 236q-121 170 -121 475zM436 459 q0 -98 62.5 -166t167 -68t165 67.5t60.5 166.5q0 96 -61.5 164.5t-163.5 68.5q-104 0 -167 -68.5t-63 -164.5z" />
<glyph unicode="7" d="M123 1159v254h1007l91 -196l-629 -1217h-348l620 1159h-741z" />
<glyph unicode="8" d="M100 399q0 127 68 214t186 124v4q-215 78 -215 303q0 184 144.5 287t357.5 103t356.5 -102.5t143.5 -287.5q0 -231 -213 -303v-6q119 -37 186.5 -123t67.5 -213q0 -203 -154 -312.5t-387 -109.5t-387 109.5t-154 312.5zM422 430q0 -92 62.5 -146.5t156.5 -54.5 t156.5 54.5t62.5 146.5t-62.5 146.5t-156.5 54.5q-96 0 -157.5 -54.5t-61.5 -146.5zM455 1020q0 -80 51 -125t135 -45t135 45t51 125q0 82 -51 127t-135 45t-135 -45t-51 -127z" />
<glyph unicode="9" d="M76 930q0 215 143 359.5t385 144.5q289 0 455 -236q123 -174 123 -477q0 -371 -191 -571q-162 -172 -430 -173q-264 0 -440 140l119 215q31 -31 121 -67t188 -36q127 0 209 86q109 113 108 338q-33 -59 -121 -108t-233 -49q-176 0 -306 116.5t-130 317.5zM391 958 q0 -96 61.5 -164.5t163.5 -68.5q104 0 166 68.5t62 164.5q0 98 -61.5 166t-166 68t-165 -68t-60.5 -166z" />
<glyph unicode=":" horiz-adv-x="667" d="M139 154q0 82 53.5 129t141.5 47q86 0 139 -47t53 -129t-53 -129.5t-139 -47.5q-88 0 -141.5 47.5t-53.5 129.5zM139 852q0 82 53.5 129t141.5 47q86 0 139 -47t53 -129t-53 -128t-139 -46q-88 0 -141.5 46t-53.5 128z" />
<glyph unicode=";" horiz-adv-x="667" d="M68 -287l174 586h215l-221 -586h-268zM139 852q0 82 53.5 129t141.5 47q86 0 139 -47t53 -129t-53 -128t-139 -46q-88 0 -141.5 46t-53.5 128z" />
<glyph unicode="&#x3c;" horiz-adv-x="1435" d="M156 571v271l1124 422v-263l-805 -294l805 -295v-265z" />
<glyph unicode="=" horiz-adv-x="1435" d="M156 360v240h1124v-240h-1124zM156 813v240h1124v-240h-1124z" />
<glyph unicode="&#x3e;" horiz-adv-x="1435" d="M156 147v265l805 295l-805 294v263l1124 -422v-271z" />
<glyph unicode="?" horiz-adv-x="1093" d="M102 1276q31 33 74 63.5t143.5 62.5t221.5 32q193 0 315.5 -105.5t122.5 -257.5q0 -115 -38 -183.5t-112 -135.5q-35 -31 -102.5 -79t-83.5 -67q-23 -27 -22 -76l-3 -96h-278l-2 133v11q0 82 29 136q31 56 100 105l125 90q90 66 90 127q0 63 -52 98t-145 35 q-162 0 -288 -122zM287 154q0 82 52 129t140 47t140.5 -47t52.5 -129t-52.5 -129.5t-140.5 -47.5t-140 47.5t-52 129.5z" />
<glyph unicode="@" horiz-adv-x="1638" d="M78 412q0 326 228.5 540.5t541.5 214.5q326 0 524 -184q188 -174 189 -428q0 -260 -152 -416q-133 -139 -301 -139q-158 0 -184 123q-123 -123 -244 -123q-106 0 -189 79t-83 247q0 197 120.5 350t307.5 153q74 0 130 -21.5t74 -43.5l21 -23l16 54h168l-133 -500 q-15 -41 -15 -76q0 -14 3 -26q8 -45 63 -46q86 0 166 112t80 284q0 219 -149.5 354t-405.5 135q-262 0 -439 -174t-177 -446q0 -274 162.5 -439.5t430.5 -165.5q53 0 102.5 4.5t95.5 14.5l78 17q32 7 72 24l55 22q15 6 52 24.5t39 18.5l53 -106q-4 -2 -26.5 -15.5 t-35.5 -20.5t-42 -21.5t-52.5 -23.5t-59.5 -21.5t-72.5 -20.5t-81.5 -15t-96.5 -11.5t-106.5 -4.5q-311 0 -519 205t-208 535zM588 342q0 -90 41 -138t110 -48q74 0 135.5 54t88.5 157l65 241q-6 8 -18.5 21.5t-56.5 35t-95 21.5q-113 0 -190 -100q-80 -105 -80 -244z" />
<glyph unicode="A" horiz-adv-x="1392" d="M-8 0l532 1415h244l533 -1415h-361l-100 285h-504l-100 -285h-344zM512 543h252l-176 508z" />
<glyph unicode="B" horiz-adv-x="1275" d="M129 0v1413h481q233 0 348 -59q180 -94 181 -297q0 -111 -60.5 -197t-146.5 -115v-4q135 -33 214 -121t79 -214q0 -201 -156 -314q-127 -92 -362 -92h-578zM459 252h182q121 0 176 39q72 47 72 141q0 90 -72 141q-55 39 -176 39h-182v-360zM459 842h129q111 0 155 30 q70 49 70 136q0 90 -70 131q-45 29 -147 28h-137v-325z" />
<glyph unicode="C" horiz-adv-x="1331" d="M57 704.5q0 333.5 212 531.5t530 198q131 0 245.5 -34t163.5 -65.5t76 -60.5l-102 -275q-31 41 -137.5 94.5t-227.5 53.5q-184 0 -304 -117t-120 -319q0 -201 122 -318t302 -117q236 0 381 150l111 -258q-186 -193 -510 -193q-319 0 -530.5 198t-211.5 531.5z" />
<glyph unicode="D" horiz-adv-x="1439" d="M129 0v1413h479q346 0 545 -170q229 -190 229 -536q0 -344 -229 -539q-199 -168 -545 -168h-479zM459 281h168q188 0 295 102q125 117 125 324q0 211 -125 331q-109 100 -295 101h-168v-858z" />
<glyph unicode="E" horiz-adv-x="1138" d="M129 0v1413h915v-264h-585v-289h553v-264h-553v-328h604v-268h-934z" />
<glyph unicode="F" horiz-adv-x="1069" d="M129 0v1413h883v-264h-553v-346h520v-264h-520v-539h-330z" />
<glyph unicode="G" horiz-adv-x="1523" d="M57 707q0 340 214 533.5t526 193.5q106 0 201.5 -22.5t150.5 -47.5t114.5 -71t71.5 -59l43 -46l-219 -191q-147 162 -362 162q-176 0 -290 -122t-114 -330.5t116 -330.5t294 -122q209 0 289 84l6 6v209h-297v252h620v-586l-24 -22l-32 -28l-38 -30q-29 -23 -47 -32 l-54 -31q-36 -20 -66 -31.5t-74 -26t-87 -22.5t-96 -13.5t-110 -5.5q-199 0 -364 82t-268.5 251.5t-103.5 396.5z" />
<glyph unicode="H" horiz-adv-x="1488" d="M129 0v1413h232v-547h567v547h232v-1413h-332v592h-567v-592h-332z" />
<glyph unicode="I" horiz-adv-x="589" d="M129 0v1413h232v-1413h-332z" />
<glyph unicode="J" horiz-adv-x="587" d="M-96 -365l12 244q47 -18 111 -18q57 0 79.5 41t22.5 123v1388h230v-1384q0 -219 -88 -320q-90 -104 -256 -104q-68 0 -131.5 10t-79.5 20z" />
<glyph unicode="K" horiz-adv-x="1288" d="M129 0v1413h230v-516l436 516h293l-497 -563l532 -850h-397l-355 590l-112 -125v-465h-330z" />
<glyph unicode="L" horiz-adv-x="968" d="M129 0v1413h230v-1139h489v-274h-819z" />
<glyph unicode="M" horiz-adv-x="1789" d="M76 0l106 1413h418l295 -930h4l291 930h420l104 -1413h-325l-56 963h-4l-303 -963h-262l-305 963h-6l-52 -963h-325z" />
<glyph unicode="N" horiz-adv-x="1536" d="M129 0v1413h254l607 -950q-6 160 -7 309v641h224v-1413h-340l-621 958q6 -170 7 -319v-639h-324z" />
<glyph unicode="O" horiz-adv-x="1613" d="M57 704.5q0 333.5 213 532.5t536.5 199t536.5 -199t213 -532.5t-213 -531.5t-536.5 -198t-536.5 198t-213 531.5zM393 712.5q0 -198.5 117 -320.5t297 -122t297 122t117 320.5t-117 319.5t-297 121t-297 -121t-117 -319.5z" />
<glyph unicode="P" horiz-adv-x="1183" d="M129 0v1413h506q240 0 369 -106q147 -121 147 -338q0 -215 -147 -340q-129 -106 -369 -107h-174v-522h-332zM459 778h129q104 0 160 39q68 49 67 152q0 100 -67 149q-55 39 -160 39h-129v-379z" />
<glyph unicode="Q" horiz-adv-x="1613" d="M57 704.5q0 333.5 213 532.5t536.5 199t536.5 -199t213 -532q0 -287 -165 -482l153 -174l-203 -178l-163 186q-168 -82 -371 -82q-324 0 -537 198t-213 531.5zM393 712.5q0 -198.5 117 -320.5t297 -122q86 0 156 29l-84 96l202 180l86 -98q53 100 54 236 q0 199 -117 319.5t-297 120.5t-297 -121t-117 -319.5z" />
<glyph unicode="R" horiz-adv-x="1228" d="M129 0v1413h508q236 0 373 -100q156 -115 155 -324q0 -125 -50 -216t-106.5 -130t-119.5 -59l358 -584h-385l-297 541h-104v-541h-332zM459 795h131q119 0 170 39q72 51 71.5 143t-71.5 143q-49 37 -170 37h-131v-362z" />
<glyph unicode="S" horiz-adv-x="1130" d="M33 188l164 242q76 -78 180 -128t188 -50q82 0 135.5 39t53.5 106q0 35 -15.5 61.5t-46.5 45t-50 28t-54 21.5q-201 74 -215 80q-121 57 -168 102q-111 102 -111 273q0 188 148 309q133 113 372 113q121 0 248 -50.5t201 -124.5l-141 -231q-63 63 -150.5 103t-165.5 40 q-84 0 -134 -32.5t-50 -94.5q0 -31 12 -54t37 -40.5t44.5 -27t49.5 -21.5l110 -42l101 -38q129 -47 197 -115q111 -111 110 -272q1 -209 -165 -338q-147 -117 -383 -117q-273 0 -502 213z" />
<glyph unicode="T" horiz-adv-x="1077" d="M8 1151v262h1061v-262h-364v-1151h-332v1151h-365z" />
<glyph unicode="U" horiz-adv-x="1421" d="M119 590v823h234v-823q0 -168 55 -236q74 -88 203 -88t202 88q55 68 56 236v823h234v-823q0 -299 -136 -445q-156 -168 -456.5 -168t-458.5 168q-133 148 -133 445z" />
<glyph unicode="V" horiz-adv-x="1347" d="M-8 1413h252l332 -973l330 973h250l-525 -1413h-315z" />
<glyph unicode="W" horiz-adv-x="2011" d="M-6 1413h246l246 -952l254 952h231l256 -952l244 952h246l-409 -1413h-334l-268 969l-269 -969h-334z" />
<glyph unicode="X" horiz-adv-x="1331" d="M-23 0l469 733l-438 680h293l265 -465l264 465h293l-440 -680l469 -733h-396l-290 526l-293 -526h-396z" />
<glyph unicode="Y" horiz-adv-x="1269" d="M-23 1413h269l289 -563l289 563h268l-491 -842v-571h-332v571z" />
<glyph unicode="Z" horiz-adv-x="1255" d="M61 0v240l693 905h-672v268h1100v-225l-699 -914h721v-274h-1143z" />
<glyph unicode="[" horiz-adv-x="684" d="M115 -309v1870h475v-158h-213v-1555h213v-157h-475z" />
<glyph unicode="\" horiz-adv-x="1107" d="M49 1544l178 84l832 -1685l-178 -84z" />
<glyph unicode="]" horiz-adv-x="684" d="M102 -152h213v1555h-213v158h476v-1870h-476v157z" />
<glyph unicode="^" horiz-adv-x="1435" d="M203 614l381 844h268l381 -844h-262l-252 582l-254 -582h-262z" />
<glyph unicode="_" horiz-adv-x="1024" d="M0 -123v246h1024v-246h-1024z" />
<glyph unicode="`" horiz-adv-x="854" d="M207 1413h278l164 -297h-233z" />
<glyph unicode="a" horiz-adv-x="1107" d="M39 299q0 106 61.5 177t145.5 99.5t186 32.5l254 10v23q0 162 -207 162q-86 0 -173 -29t-136 -61l-86 213q205 102 432 102q250 0 377 -117q121 -115 121 -342v-569h-314l-6 106q-35 -35 -59.5 -55t-89 -47t-139.5 -27q-150 0 -258.5 82t-108.5 240zM367 311 q0 -57 43 -91t110 -34q59 0 103.5 30t64.5 63v165l-162 -10q-159 -6 -159 -123z" />
<glyph unicode="b" horiz-adv-x="1290" d="M117 0v1413h227v-340l-4 -186h6q39 57 120 99t198 42q215 0 345 -148.5t130 -376t-131 -377t-346 -149.5q-223 0 -334 156h-2l2 -133h-311zM432 508q0 -117 65.5 -189.5t172 -72.5t171 72.5t64.5 189.5t-64.5 189.5t-171 72.5t-172 -72.5t-65.5 -189.5z" />
<glyph unicode="c" horiz-adv-x="987" d="M49 501.5q0 241.5 159 384t378 142.5q115 0 209 -26.5t131 -53.5l35 -26l-72 -248q-115 90 -260 90q-106 0 -178 -69.5t-72 -186.5q0 -119 69.5 -189.5t184.5 -70.5q68 0 132 24.5t95 49.5l29 24l78 -248l-6 -4q-6 -6 -13 -11l-18 -15q-12 -9 -26 -16l-33 -17 q-19 -10 -40.5 -17.5t-49 -15.5t-57.5 -13t-66.5 -8.5t-75.5 -3.5q-219 0 -376 141.5t-157 383z" />
<glyph unicode="d" horiz-adv-x="1290" d="M49 503.5q0 227.5 131 376t346 148.5q123 0 204 -45t116 -96v526h228v-1413h-312l2 133l-6 -2q-113 -154 -332 -154q-215 0 -346 149.5t-131 377zM383 508q0 -117 65.5 -189.5t172 -72.5t171 72.5t64.5 189.5t-64.5 189.5t-171 72.5t-172 -72.5t-65.5 -189.5z" />
<glyph unicode="e" horiz-adv-x="1142" d="M49 504q0 242 155.5 383t389.5 141q225 0 365.5 -136t140.5 -357l-4 -109h-719q10 -104 80.5 -157.5t177.5 -53.5q162 0 303 96l129 -170l-18 -16q-20 -16 -37 -27l-48 -32q-30 -19 -67 -32.5t-82 -27.5t-104.5 -21.5t-122.5 -7.5q-240 0 -389.5 140.5t-149.5 386.5z M379 612h416q-2 78 -56.5 140.5t-150.5 62.5q-94 0 -149.5 -61.5t-59.5 -141.5z" />
<glyph unicode="f" horiz-adv-x="663" d="M23 760v248h129v55q0 188 81 272q98 104 283 105q57 0 112.5 -7.5t84.5 -13.5l26 -6l-16 -227q-63 18 -121 18q-121 0 -121 -131v-65h217v-248h-217v-760h-329v760h-129z" />
<glyph unicode="g" horiz-adv-x="1286" d="M49 530.5q0 233.5 139.5 365.5t337.5 132q207 0 320 -147h4l-4 129h228v-805q0 -293 -154 -436q-170 -160 -465 -160q-156 0 -287 48t-202 101l135 219q53 -41 154.5 -77.5t193.5 -36.5q162 0 237 80q61 70 62 200v33h-4q-111 -143 -318 -143q-199 0 -338 132t-139 365.5 zM383 528q0 -106 65.5 -175.5t172 -69.5t171 69.5t64.5 175.5q0 104 -64.5 174t-171 70t-172 -70t-65.5 -174z" />
<glyph unicode="h" horiz-adv-x="1206" d="M117 0v1413h227v-336l-2 -213q92 164 297 164t287 -113.5t82 -318.5v-596h-330v530q0 111 -29.5 170.5t-123.5 59.5q-180 0 -181 -264v-496h-327z" />
<glyph unicode="i" horiz-adv-x="552" d="M90 1296.5q0 75.5 52.5 122.5t134 47t134 -47t52.5 -122.5t-51.5 -123t-135 -47.5t-135 47.5t-51.5 123zM113 0v1010h227v-1010h-327z" />
<glyph unicode="j" horiz-adv-x="552" d="M-96 -373l6 254q41 -12 92 -12q63 0 87 42t24 130v969h227v-985q0 -211 -84 -304q-102 -113 -280 -112zM90 1296.5q0 75.5 52.5 122.5t134 47t134 -47t52.5 -122.5t-51.5 -123t-135 -47.5t-135 47.5t-51.5 123z" />
<glyph unicode="k" horiz-adv-x="1128" d="M117 0v1413h227v-737l308 334h276l-368 -379l399 -631h-377l-247 393l-91 -88v-305h-327z" />
<glyph unicode="l" horiz-adv-x="559" d="M117 0v1413h227v-1413h-327z" />
<glyph unicode="m" horiz-adv-x="1789" d="M109 0v1010h227l-2 -146l4 2q43 70 116 116t163 46q231 0 301 -184q109 184 321 184q350 0 351 -420v-608h-330v549q0 211 -133 211q-82 0 -123 -65.5t-41 -176.5v-518h-328v549q0 211 -135 211q-82 0 -123 -65.5t-41 -176.5v-518h-327z" />
<glyph unicode="n" horiz-adv-x="1202" d="M109 0v1010h227l-2 -146h4q100 164 293 164q205 0 287 -114.5t82 -317.5v-596h-328v526q0 115 -30.5 174.5t-125.5 59.5q-180 0 -180 -260v-500h-327z" />
<glyph unicode="o" horiz-adv-x="1220" d="M49 501.5q0 239.5 159 383t402.5 143.5t401 -143.5t157.5 -383t-157.5 -382t-401.5 -142.5q-246 0 -403.5 142.5t-157.5 382zM381 508q0 -115 61.5 -188.5t167.5 -73.5q104 0 167 73.5t63 188.5t-62.5 188.5t-167.5 73.5q-106 0 -167.5 -73.5t-61.5 -188.5z" />
<glyph unicode="p" horiz-adv-x="1286" d="M113 -371v1381h211l-2 -129h4q123 147 336 147q215 0 345 -148.5t130 -376t-131 -377t-346 -149.5q-219 0 -320 150v-498h-327zM430 508q0 -117 65.5 -189.5t170.5 -72.5q106 0 171.5 72.5t65.5 189.5t-65.5 189.5t-171.5 72.5q-104 0 -170 -72.5t-66 -189.5z" />
<glyph unicode="q" d="M49 503.5q0 227.5 131 376t346 148.5q213 0 336 -147h4l-4 129h212v-1381h-328v357l2 141h-4q-100 -150 -318 -150q-215 0 -346 149.5t-131 377zM383 508q0 -117 65.5 -189.5t172 -72.5t171 72.5t64.5 189.5t-64.5 189.5t-171 72.5t-172 -72.5t-65.5 -189.5z" />
<glyph unicode="r" horiz-adv-x="792" d="M109 0v1010h227l-2 -144h4q84 162 250 162l103 -18l-19 -301h-14q-45 25 -119 24q-96 0 -152 -74q-51 -68 -51 -210v-449h-327z" />
<glyph unicode="s" horiz-adv-x="923" d="M25 133l122 195q61 -51 149.5 -87t149.5 -36q139 0 140 86q0 18 -14.5 34.5t-41 30t-46 20.5t-50.5 16t-33 9q-88 23 -143 48q-172 76 -172 264q0 143 109.5 230t273.5 87q236 0 387 -125l-106 -192q-47 37 -122 67.5t-132 30.5q-121 0 -121 -74q0 -55 147 -98 q86 -25 144 -47q82 -31 131 -76q82 -82 82 -205q0 -150 -119 -245q-113 -88 -309 -89q-262 0 -426 156z" />
<glyph unicode="t" horiz-adv-x="733" d="M14 760v248h144v274h229v-274h224v-248h-224v-363q0 -92 29 -125q20 -25 78 -24l98 18l17 -256q-131 -33 -234 -33q-164 0 -246 95q-72 84 -71 297v391h-144z" />
<glyph unicode="u" horiz-adv-x="1185" d="M102 399v611h228v-566q0 -197 150 -196q84 0 127 60.5t43 164.5v537h227v-1010h-315l-2 115q-37 -53 -116 -95.5t-179 -42.5q-199 0 -289 119q-74 104 -74 303z" />
<glyph unicode="v" horiz-adv-x="1118" d="M-8 1010h242l229 -639l228 639h237l-415 -1010h-307z" />
<glyph unicode="w" horiz-adv-x="1685" d="M4 1010h232l178 -645l195 645h268l194 -645l179 645h231l-331 -1010h-310l-196 618l-199 -618h-309z" />
<glyph unicode="x" horiz-adv-x="1159" d="M-23 0l406 526l-363 484h271l189 -303l186 303h271l-363 -484l406 -526h-373l-227 336l-230 -336h-373z" />
<glyph unicode="y" horiz-adv-x="1114" d="M-8 1010h242l229 -650l228 650h237l-450 -1106q-61 -147 -134 -219t-194 -72q-172 0 -280 49l65 242q72 -27 121 -27q25 0 37 2t30.5 17.5t30.5 46.5l37 88z" />
<glyph unicode="z" horiz-adv-x="1015" d="M33 0v188l510 572h-488v248h903v-183l-503 -565h528v-260h-950z" />
<glyph unicode="{" horiz-adv-x="684" d="M12 522v207q125 0 125 166v360q0 162 63.5 234t219.5 72h180v-158h-70q-76 0 -103.5 -27.5t-27.5 -105.5v-375q0 -129 -41 -185.5t-122 -76.5v-15q82 -20 122.5 -77.5t40.5 -186.5v-374q0 -78 28 -105t103 -27h70v-157h-180q-156 0 -219.5 70.5t-63.5 232.5v360 q0 168 -125 168z" />
<glyph unicode="|" horiz-adv-x="684" d="M231 -301v1939h222v-1939h-222z" />
<glyph unicode="}" horiz-adv-x="684" d="M84 -152h70q76 0 103.5 27t27.5 105v374q0 129 41 186.5t123 77.5v15q-82 20 -123 76.5t-41 185.5v375q0 78 -28 105.5t-103 27.5h-70v158h182q156 0 218.5 -72t62.5 -234v-360q0 -166 127 -166v-207q-127 0 -127 -168v-360q0 -162 -62.5 -232.5t-218.5 -70.5h-182v157z " />
<glyph unicode="~" horiz-adv-x="1435" d="M152 639q63 92 153 151.5t193 59.5q23 0 45 -2t39.5 -5t38 -9.5t32 -10.5t29.5 -12l26 -11q7 -3 24.5 -12.5t19.5 -11.5q123 -61 188 -61q53 0 107.5 36.5t93.5 92.5l143 -174q-63 -92 -153.5 -151.5t-192.5 -59.5q-23 0 -45.5 2t-39.5 5t-37.5 9t-32 10t-29.5 13l-26 11 q-7 3 -24.5 12t-19.5 11q-123 61 -188 62q-53 0 -107.5 -37t-93.5 -92z" />
<glyph unicode="&#xa1;" horiz-adv-x="667" d="M139 856q0 82 53.5 128t141.5 46q86 0 139 -46t53 -128t-53 -129t-139 -47q-88 0 -141.5 47t-53.5 129zM162 -403l28 978h285l31 -978h-344z" />
<glyph unicode="&#xa2;" d="M172 622.5q0 227.5 140.5 367.5t355.5 159v162h166v-164q86 -8 159.5 -38t104.5 -58l-66 -240q-90 68 -198 80v-529q61 4 120.5 29t87.5 49l64 -233q-18 -25 -98 -60.5t-174 -44.5v-163h-166v161q-215 18 -355.5 156.5t-140.5 366zM487 629q0 -94 48.5 -162t132.5 -90 v506q-82 -20 -131.5 -89t-49.5 -165z" />
<glyph unicode="&#xa3;" d="M121 0v244h235q14 23 28.5 86t16.5 108l-4 146h-215v188h201l-29 103q-29 98 -28 184q0 164 118 272q113 102 312 103q231 0 374 -146l-112 -190q-113 102 -232 102q-88 0 -128 -48t-40 -118q0 -61 35 -188l21 -74h201v-188h-287l4 -146q-2 -45 -15 -108.5t-28 -85.5h537 v-244h-1065z" />
<glyph unicode="&#xa4;" d="M102 467v190h105q-2 31 -2 60v55h-103v189h136q47 225 206 354q143 119 364.5 119t367.5 -95l-76 -260q-109 102 -271 103q-219 0 -258 -221h294v-189h-430q-2 -31 -3 -55l3 -60h430v-190h-394q14 -104 82 -163.5t174 -59.5q150 0 293 123l99 -234l-13 -12l-22 -22 q-10 -9 -32 -24.5t-43.5 -27.5t-55 -25.5t-69.5 -22.5t-84 -15.5t-99 -6.5q-219 0 -366.5 124t-201.5 366h-131z" />
<glyph unicode="&#xa5;" d="M12 1413h263l266 -555l266 555h261l-338 -582h235v-190h-348l-18 -66v-53h266v-188h-368v-334h-314v334h-368v188h268v53l-18 66h-350v190h237z" />
<glyph unicode="&#xa6;" horiz-adv-x="684" d="M231 0v647h222v-647h-222zM231 991v647h222v-647h-222z" />
<glyph unicode="&#xa7;" horiz-adv-x="1357" d="M176 -154l180 162q39 -74 127 -126t176 -52q176 0 177 129q0 100 -172 172l-209 86q-258 106 -258 334q0 70 24.5 128t59 91t60.5 51.5t40 22.5q-12 8 -32.5 26.5t-53.5 81t-33 135.5q0 164 125 255.5t307 91.5q303 0 451 -207l-152 -160q-117 156 -282 156 q-158 0 -158 -121q0 -55 46 -90t149 -78l165 -68q268 -113 269 -348q0 -90 -46 -159.5t-92 -94.5l-45 -24q43 -23 88.5 -94.5t45.5 -172.5q0 -174 -138.5 -269t-335.5 -95q-342 -1 -483 237zM451 598q0 -100 120 -149l263 -107q84 27 84 133.5t-119 155.5l-264 108 q-35 -12 -59.5 -51t-24.5 -90z" />
<glyph unicode="&#xa8;" horiz-adv-x="854" d="M102 1264q0 61 40 99t99.5 38t98.5 -38t39 -99.5t-39 -98.5t-98.5 -37t-99.5 38.5t-40 97.5zM475 1264q0 61 40 99t99.5 38t98.5 -38t39 -99.5t-39 -98.5t-98.5 -37t-99.5 38.5t-40 97.5z" />
<glyph unicode="&#xa9;" horiz-adv-x="1574" d="M59 706.5q0 307.5 211 517.5t516 210q307 0 518.5 -210t211.5 -517.5t-211 -517t-519 -209.5q-305 0 -516 209.5t-211 517zM168 706.5q0 -260.5 178 -439.5t440.5 -179t440.5 178t178 440.5t-178 440.5t-440.5 178t-440.5 -179t-178 -439.5zM379 706.5q0 194.5 126 316.5 t316 122q201 0 305 -117l-73 -135q-84 96 -228 96q-113 0 -189.5 -72.5t-76.5 -205.5t77 -206t189 -73q141 0 238 96l74 -133q-121 -127 -316 -127q-190 0 -316 122t-126 316.5z" />
<glyph unicode="&#xaa;" horiz-adv-x="770" d="M66 588q0 96 73.5 139t173.5 47l156 6v8q0 92 -125 93q-109 0 -194 -54l-58 136q127 63 277 63q164 0 241 -74q74 -68 74 -213v-336h-205l-6 66q-72 -76 -182 -76q-90 0 -157.5 48.5t-67.5 146.5zM285 596q0 -72 88 -72q23 0 47 11.5t37 21.5l12 12v103l-98 -6 q-86 -4 -86 -70z" />
<glyph unicode="&#xab;" horiz-adv-x="1165" d="M127 504l326 444l159 -110l-241 -334l241 -332l-159 -111zM541 504l325 444l160 -110l-242 -334l242 -332l-160 -111z" />
<glyph unicode="&#xac;" horiz-adv-x="1437" d="M156 780v240h1124v-684h-240v444h-884z" />
<glyph unicode="&#xad;" horiz-adv-x="694" d="M61 422v256h572v-256h-572z" />
<glyph unicode="&#xae;" horiz-adv-x="1574" d="M59 706.5q0 307.5 211 517.5t516 210q307 0 518.5 -210t211.5 -517.5t-211 -517t-519 -209.5q-305 0 -516 209.5t-211 517zM168 706.5q0 -260.5 178 -439.5t440.5 -179t440.5 178t178 440.5t-178 440.5t-440.5 178t-440.5 -179t-178 -439.5zM504 281v852h201 q141 0 223 -69t82 -187q0 -109 -53 -165.5t-121 -74.5l211 -356h-207l-178 333h-84v-333h-174zM678 756h98q154 0 154 116q0 119 -154 119h-98v-235z" />
<glyph unicode="&#xaf;" horiz-adv-x="854" d="M102 1188v158h650v-158h-650z" />
<glyph unicode="&#xb0;" horiz-adv-x="882" d="M106 1175.5q0 139.5 98.5 234.5t237.5 95q137 0 235.5 -95t98.5 -234.5t-98 -233.5t-236 -94q-139 0 -237.5 94t-98.5 233.5zM260 1175.5q0 -75.5 52.5 -130t129.5 -54.5q76 0 130.5 55.5t54.5 129.5q0 76 -54.5 130t-130.5 54q-78 0 -130 -54.5t-52 -130z" />
<glyph unicode="&#xb1;" horiz-adv-x="1435" d="M156 109v239h1124v-239h-1124zM156 774v240h440v352h246v-352h438v-240h-438v-354h-246v354h-440z" />
<glyph unicode="&#xb2;" horiz-adv-x="847" d="M78 1292q8 51 104.5 110.5t231.5 59.5q147 0 237 -69.5t90 -182.5q0 -25 -3 -47t-12 -44l-16 -39q-7 -17 -23.5 -37.5t-25 -32t-29.5 -31.5l-28 -27q-6 -6 -29.5 -26.5t-27.5 -24.5l-152 -137h275v-180h-655l-27 147l299 266q72 66 100.5 105t28.5 80q0 43 -31.5 69.5 t-89.5 26.5q-125 0 -215 -129z" />
<glyph unicode="&#xb3;" horiz-adv-x="847" d="M88 741l121 127q33 -55 92 -85.5t117 -30.5q55 0 95 27.5t40 72.5q0 47 -37 74.5t-94 27.5l-76 2v162h82q49 0 76.5 24.5t27.5 67.5q0 37 -29.5 58.5t-80.5 21.5q-117 0 -201 -98l-94 137q106 133 309 133q129 0 222.5 -64.5t93.5 -168.5q0 -129 -115 -187h-2 q66 -23 104.5 -76t38.5 -124q0 -123 -102.5 -198t-237.5 -75q-241 0 -350 172z" />
<glyph unicode="&#xb4;" horiz-adv-x="854" d="M207 1116l162 297h280l-211 -297h-231z" />
<glyph unicode="&#xb5;" horiz-adv-x="1191" d="M106 -371v1379h228v-551q0 -102 35 -154.5t117 -52.5q168 0 168 211v547h229v-1008h-315l-4 111q-33 -43 -98.5 -77t-135.5 -34q-80 0 -112 37l12 -408h-324z" />
<glyph unicode="&#xb6;" horiz-adv-x="1357" d="M78 956q0 223 130 340t361 117h678v-213h-92v-1571h-219v1571h-191v-1571h-217v871q-201 4 -325.5 121.5t-124.5 334.5z" />
<glyph unicode="&#xb7;" horiz-adv-x="858" d="M240 596q0 78 52 126t138 48q84 0 136 -48t52 -126t-52 -126t-136 -48q-86 0 -138 48t-52 126z" />
<glyph unicode="&#xb8;" horiz-adv-x="870" d="M233 -303l197 303h207l-156 -303h-248z" />
<glyph unicode="&#xb9;" horiz-adv-x="847" d="M211 1278v164h293v-864h-231v700h-162z" />
<glyph unicode="&#xba;" horiz-adv-x="864" d="M86 708.5q0 143.5 97.5 230.5t248.5 87q150 0 248 -87t98 -230q0 -141 -98 -228.5t-248 -87.5q-152 0 -249 86t-97 229.5zM301 712.5q0 -69.5 38 -110.5t93 -41t92 41t37 110.5t-37 109.5t-92 40t-93 -40t-38 -109.5z" />
<glyph unicode="&#xbb;" horiz-adv-x="1165" d="M139 172l242 332l-242 334l160 110l326 -444l-326 -443zM553 838l160 110l325 -444l-325 -443l-158 111l240 332z" />
<glyph unicode="&#xbc;" horiz-adv-x="1935" d="M131 1249v164h295v-835h-233v671h-162zM362 35l881 1415l141 -84l-880 -1415zM1022 166v147l444 559h244v-534h119v-172h-119v-166h-233v166h-455zM1245 338h236v305z" />
<glyph unicode="&#xbd;" horiz-adv-x="1937" d="M117 1249v164h295v-850h-231v686h-164zM344 35l879 1415l141 -84l-879 -1415zM1130 719q23 47 115 98t219 51q143 0 232.5 -69.5t89.5 -182.5q0 -43 -14.5 -85t-26.5 -66.5t-48 -61.5l-45 -46q-9 -9 -53 -46l-149 -129h273v-182h-654l-30 141l286 250q137 117 138 191 q0 47 -33 74.5t-86 27.5q-106 0 -217 -123z" />
<glyph unicode="&#xbe;" horiz-adv-x="1935" d="M88 741l121 127q33 -55 92 -85.5t117 -30.5q55 0 95 27.5t40 72.5q0 47 -37 74.5t-94 27.5l-76 2v162h82q49 0 76.5 24.5t27.5 67.5q0 37 -29.5 58.5t-80.5 21.5q-117 0 -201 -98l-94 137q106 133 309 133q129 0 222.5 -64.5t93.5 -168.5q0 -129 -115 -187h-2 q66 -23 104.5 -76t38.5 -124q0 -123 -102.5 -198t-237.5 -75q-241 0 -350 172zM467 35l881 1415l141 -84l-881 -1415zM1022 166v147l444 559h244v-534h119v-172h-119v-166h-233v166h-455zM1245 338h236v305z" />
<glyph unicode="&#xbf;" horiz-adv-x="1093" d="M113 -61q0 115 37.5 182t113.5 137q35 31 102.5 79t84.5 66q23 31 22 76l2 96h277l2 -133v-11q0 -84 -29 -136q-31 -55 -98 -105l-125 -90q-90 -66 -90 -127q0 -63 51 -98t145 -35q164 0 287 123l96 -229q-152 -158 -438 -158q-195 0 -317.5 105.5t-122.5 257.5zM420 856 q0 82 53 129t141 47q86 0 139.5 -47t53.5 -129t-53.5 -129t-139.5 -47q-88 0 -141 47t-53 129z" />
<glyph unicode="&#xc0;" horiz-adv-x="1392" d="M-8 0l532 1415h244l533 -1415h-361l-100 285h-504l-100 -285h-344zM383 1794h281l161 -297h-233zM512 543h252l-176 508z" />
<glyph unicode="&#xc1;" horiz-adv-x="1392" d="M-8 0l532 1415h244l533 -1415h-361l-100 285h-504l-100 -285h-344zM512 543h252l-176 508zM567 1497l162 297h281l-209 -297h-234z" />
<glyph unicode="&#xc2;" horiz-adv-x="1392" d="M-8 0l532 1415h244l533 -1415h-361l-100 285h-504l-100 -285h-344zM365 1497l176 297h211l176 -297h-221l-111 184l-110 -184h-221zM512 543h252l-176 508z" />
<glyph unicode="&#xc3;" horiz-adv-x="1392" d="M-8 0l532 1415h244l533 -1415h-361l-100 285h-504l-100 -285h-344zM326 1540q2 96 71.5 166t161.5 70q74 0 158 -45q82 -47 117 -48q70 0 92 86l141 -20q-4 -96 -72.5 -166t-160.5 -70q-80 0 -158 48q-82 47 -117 47q-70 0 -92 -88zM512 543h252l-176 508z" />
<glyph unicode="&#xc4;" horiz-adv-x="1392" d="M-8 0l532 1415h244l533 -1415h-361l-100 285h-504l-100 -285h-344zM375 1638.5q0 61.5 39 99.5t100 38q59 0 98 -38t39 -99.5t-39 -99.5t-98 -38q-61 0 -100 38t-39 99.5zM512 543h252l-176 508zM741 1638.5q0 61.5 39 99.5t98.5 38t99.5 -38t40 -99.5t-40 -99.5 t-99.5 -38t-98.5 38t-39 99.5z" />
<glyph unicode="&#xc5;" horiz-adv-x="1392" d="M-8 0l532 1415h244l533 -1415h-361l-100 285h-504l-100 -285h-344zM461 1665q0 98 67.5 154.5t168 56.5t168 -56.5t67.5 -154.5q0 -96 -67.5 -152.5t-168 -56.5t-168 56.5t-67.5 152.5zM512 543h252l-176 508zM592 1665q0 -45 28.5 -71.5t75.5 -26.5t76 26.5t29 71.5 t-29 72.5t-76 27.5t-75.5 -27.5t-28.5 -72.5z" />
<glyph unicode="&#xc6;" horiz-adv-x="1898" d="M-78 0l854 1413h1030v-264h-526v-285h494v-264h-494v-332h545v-268h-875v287h-493l-162 -287h-373zM602 545h248v608h-6z" />
<glyph unicode="&#xc7;" horiz-adv-x="1331" d="M57 705q0 334 212 531.5t530 197.5q131 0 245.5 -34t163.5 -65.5t76 -60.5l-102 -275q-31 41 -137.5 94.5t-227.5 53.5q-184 0 -304 -117t-120 -319q0 -201 122 -318t302 -117q236 0 381 150l111 -258q-164 -170 -416 -184l-129 -291h-299l164 301q-102 16 -198.5 66.5 t-182.5 133t-138.5 216t-52.5 295.5z" />
<glyph unicode="&#xc8;" horiz-adv-x="1138" d="M129 0v1413h915v-264h-585v-289h553v-264h-553v-328h604v-268h-934zM313 1794h281l162 -297h-234z" />
<glyph unicode="&#xc9;" horiz-adv-x="1138" d="M129 0v1413h915v-264h-585v-289h553v-264h-553v-328h604v-268h-934zM406 1497l161 297h281l-209 -297h-233z" />
<glyph unicode="&#xca;" horiz-adv-x="1138" d="M129 0v1413h915v-264h-585v-289h553v-264h-553v-328h604v-268h-934zM256 1497l176 297h209l177 -297h-220l-110 184l-113 -184h-219z" />
<glyph unicode="&#xcb;" horiz-adv-x="1138" d="M129 0v1413h915v-264h-585v-289h553v-264h-553v-328h604v-268h-934zM266 1638.5q0 61.5 39 99.5t98.5 38t99.5 -38t40 -99.5t-40 -99.5t-99.5 -38t-98.5 38t-39 99.5zM635 1638.5q0 61.5 39 99.5t98 38q61 0 100 -38t39 -99.5t-38.5 -99.5t-100.5 -38q-59 0 -98 38 t-39 99.5z" />
<glyph unicode="&#xcc;" horiz-adv-x="589" d="M14 1794h281l162 -297h-234zM129 0v1413h232v-1413h-332z" />
<glyph unicode="&#xcd;" horiz-adv-x="589" d="M129 0v1413h232v-1413h-332zM133 1497l162 297h280l-210 -297h-232z" />
<glyph unicode="&#xce;" horiz-adv-x="589" d="M-37 1497l176 297h212l174 -297h-219l-111 184l-111 -184h-221zM129 0v1413h232v-1413h-332z" />
<glyph unicode="&#xcf;" horiz-adv-x="589" d="M-29 1642.5q0 61.5 40 99.5t99.5 38t98.5 -38t39 -99.5t-39 -99.5t-98.5 -38t-99.5 38t-40 99.5zM129 0v1413h232v-1413h-332zM342 1642.5q0 61.5 39 99.5t98.5 38t99 -38t39.5 -99.5t-39.5 -99.5t-99 -38t-98.5 38t-39 99.5z" />
<glyph unicode="&#xd0;" horiz-adv-x="1439" d="M12 618v218h117v577h479q346 0 545 -170q229 -190 229 -536q0 -344 -229 -539q-199 -168 -545 -168h-479v618h-117zM459 281h168q188 0 295 102q125 117 125 324q0 211 -125 331q-109 100 -295 101h-168v-303h278v-209h-278v-346z" />
<glyph unicode="&#xd1;" horiz-adv-x="1536" d="M129 0v1413h254l607 -950q-6 160 -7 309v641h224v-1413h-340l-621 958q6 -170 7 -319v-639h-324zM397 1540q2 96 72 166t162 70q74 0 157 -45q82 -47 115 -48q72 0 94 86l142 -20q-4 -96 -73 -166t-161 -70q-80 0 -157 48q-82 47 -117 47q-70 0 -92 -88z" />
<glyph unicode="&#xd2;" horiz-adv-x="1613" d="M57 704.5q0 333.5 213 532.5t536.5 199t536.5 -199t213 -532.5t-213 -531.5t-536.5 -198t-536.5 198t-213 531.5zM393 712.5q0 -198.5 117 -320.5t297 -122t297 122t117 320.5t-117 319.5t-297 121t-297 -121t-117 -319.5zM481 1794h281l162 -297h-234z" />
<glyph unicode="&#xd3;" horiz-adv-x="1613" d="M57 704.5q0 333.5 213 532.5t536.5 199t536.5 -199t213 -532.5t-213 -531.5t-536.5 -198t-536.5 198t-213 531.5zM393 712.5q0 -198.5 117 -320.5t297 -122t297 122t117 320.5t-117 319.5t-297 121t-297 -121t-117 -319.5zM690 1497l164 297h279l-209 -297h-234z" />
<glyph unicode="&#xd4;" horiz-adv-x="1613" d="M57 704.5q0 333.5 213 532.5t536.5 199t536.5 -199t213 -532.5t-213 -531.5t-536.5 -198t-536.5 198t-213 531.5zM393 712.5q0 -198.5 117 -320.5t297 -122t297 122t117 320.5t-117 319.5t-297 121t-297 -121t-117 -319.5zM475 1497l176 297h212l176 -297h-221l-111 184 l-111 -184h-221z" />
<glyph unicode="&#xd5;" horiz-adv-x="1613" d="M57 704.5q0 333.5 213 532.5t536.5 199t536.5 -199t213 -532.5t-213 -531.5t-536.5 -198t-536.5 198t-213 531.5zM393 712.5q0 -198.5 117 -320.5t297 -122t297 122t117 320.5t-117 319.5t-297 121t-297 -121t-117 -319.5zM436 1540q2 96 72 166t162 70q74 0 157 -45 q82 -47 117 -48q70 0 92 86l142 -20q-4 -96 -73 -166t-161 -70q-80 0 -158 48q-82 47 -116 47q-70 0 -92 -88z" />
<glyph unicode="&#xd6;" horiz-adv-x="1613" d="M57 704.5q0 333.5 213 532.5t536.5 199t536.5 -199t213 -532.5t-213 -531.5t-536.5 -198t-536.5 198t-213 531.5zM393 712.5q0 -198.5 117 -320.5t297 -122t297 122t117 320.5t-117 319.5t-297 121t-297 -121t-117 -319.5zM485 1638.5q0 61.5 39 99.5t98.5 38t99.5 -38 t40 -99.5t-40 -99.5t-99.5 -38t-98.5 38t-39 99.5zM854 1638.5q0 61.5 39 99.5t98.5 38t99 -38t39.5 -99.5t-39.5 -99.5t-99 -38t-98.5 38t-39 99.5z" />
<glyph unicode="&#xd7;" horiz-adv-x="1435" d="M168 330l379 377l-379 374l172 176l379 -376l377 376l174 -176l-379 -374l379 -377l-174 -176l-377 376l-379 -376z" />
<glyph unicode="&#xd8;" horiz-adv-x="1613" d="M57 705q0 334 213 532.5t537 198.5q260 0 448 -129l154 155l147 -143l-149 -152q150 -188 149 -462q0 -334 -213 -532t-536 -198q-260 0 -449 129l-151 -153l-148 143l148 150q-150 189 -150 461zM393 713q0 -127 51 -230l594 604q-100 66 -231 66q-180 0 -297 -120.5 t-117 -319.5zM584 332q100 -61 223 -62q180 0 297 122t117 321q0 121 -47 219z" />
<glyph unicode="&#xd9;" horiz-adv-x="1421" d="M119 590v823h234v-823q0 -168 55 -236q74 -88 203 -88t202 88q55 68 56 236v823h234v-823q0 -299 -136 -445q-156 -168 -456.5 -168t-458.5 168q-133 148 -133 445zM408 1794h280l164 -297h-234z" />
<glyph unicode="&#xda;" horiz-adv-x="1421" d="M119 590v823h234v-823q0 -168 55 -236q74 -88 203 -88t202 88q55 68 56 236v823h234v-823q0 -299 -136 -445q-156 -168 -456.5 -168t-458.5 168q-133 148 -133 445zM569 1497l162 297h281l-209 -297h-234z" />
<glyph unicode="&#xdb;" horiz-adv-x="1421" d="M119 590v823h234v-823q0 -168 55 -236q74 -88 203 -88t202 88q55 68 56 236v823h234v-823q0 -299 -136 -445q-156 -168 -456.5 -168t-458.5 168q-133 148 -133 445zM379 1497l176 297h211l174 -297h-219l-110 184l-111 -184h-221z" />
<glyph unicode="&#xdc;" horiz-adv-x="1421" d="M119 590v823h234v-823q0 -168 55 -236q74 -88 203 -88t202 88q55 68 56 236v823h234v-823q0 -299 -136 -445q-156 -168 -456.5 -168t-458.5 168q-133 148 -133 445zM387 1638.5q0 61.5 40 99.5t99.5 38t98.5 -38t39 -99.5t-39 -99.5t-98.5 -38t-99.5 38t-40 99.5z M758 1638.5q0 61.5 39 99.5t98 38t99 -38t40 -99.5t-40 -99.5t-99 -38t-98 38t-39 99.5z" />
<glyph unicode="&#xdd;" horiz-adv-x="1269" d="M-23 1413h269l289 -563l289 563h268l-491 -842v-571h-332v571zM487 1497l164 297h281l-211 -297h-234z" />
<glyph unicode="&#xde;" horiz-adv-x="1179" d="M129 0v1413h232v-227h160q240 0 368 -107q147 -125 148 -340q0 -217 -148 -338q-129 -106 -368 -106h-160v-295h-332zM459 549h112q102 0 158 41q70 49 70 149q0 102 -70 152q-53 39 -158 39h-112v-381z" />
<glyph unicode="&#xdf;" horiz-adv-x="1247" d="M117 0v893q0 203 49 303q49 102 149 166q115 72 310 72q225 0 340.5 -101.5t115.5 -240.5q0 -113 -57 -188t-119 -89v-4q125 -27 209 -131.5t84 -257.5q0 -213 -143.5 -326.5t-382.5 -113.5l-142 18l17 236q39 -10 88 -11q104 0 173 53.5t69 161.5q0 113 -70 169.5 t-184 56.5h-58v227h47q182 0 183 164q0 70 -50.5 112.5t-128.5 42.5q-94 0 -139 -63q-33 -49 -33 -170v-979h-327z" />
<glyph unicode="&#xe0;" horiz-adv-x="1107" d="M39 299q0 106 61.5 177t145.5 99.5t186 32.5l254 10v23q0 162 -207 162q-86 0 -173 -29t-136 -61l-86 213q205 102 432 102q250 0 377 -117q121 -115 121 -342v-569h-314l-6 106q-35 -35 -59.5 -55t-89 -47t-139.5 -27q-150 0 -258.5 82t-108.5 240zM248 1413h280 l162 -297h-233zM367 311q0 -57 43 -91t110 -34q59 0 103.5 30t64.5 63v165l-162 -10q-159 -6 -159 -123z" />
<glyph unicode="&#xe1;" horiz-adv-x="1107" d="M39 299q0 106 61.5 177t145.5 99.5t186 32.5l254 10v23q0 162 -207 162q-86 0 -173 -29t-136 -61l-86 213q205 102 432 102q250 0 377 -117q121 -115 121 -342v-569h-314l-6 106q-35 -35 -59.5 -55t-89 -47t-139.5 -27q-150 0 -258.5 82t-108.5 240zM367 311 q0 -57 43 -91t110 -34q59 0 103.5 30t64.5 63v165l-162 -10q-159 -6 -159 -123zM381 1116l164 297h278l-209 -297h-233z" />
<glyph unicode="&#xe2;" horiz-adv-x="1107" d="M39 299q0 106 61.5 177t145.5 99.5t186 32.5l254 10v23q0 162 -207 162q-86 0 -173 -29t-136 -61l-86 213q205 102 432 102q250 0 377 -117q121 -115 121 -342v-569h-314l-6 106q-35 -35 -59.5 -55t-89 -47t-139.5 -27q-150 0 -258.5 82t-108.5 240zM217 1116l174 297 h211l177 -297h-222l-110 189l-111 -189h-219zM367 311q0 -57 43 -91t110 -34q59 0 103.5 30t64.5 63v165l-162 -10q-159 -6 -159 -123z" />
<glyph unicode="&#xe3;" horiz-adv-x="1107" d="M39 299q0 106 61.5 177t145.5 99.5t186 32.5l254 10v23q0 162 -207 162q-86 0 -173 -29t-136 -61l-86 213q205 102 432 102q250 0 377 -117q121 -115 121 -342v-569h-314l-6 107q-35 -35 -59.5 -55.5t-89 -47.5t-139.5 -27q-150 0 -258.5 82t-108.5 240zM197 1163 q2 96 71.5 166t161.5 70q74 0 158 -45q76 -49 114 -49q72 0 95 88l139 -21q-2 -96 -70.5 -165.5t-160.5 -69.5q-74 0 -158 45q-6 4 -23.5 14t-30 16.5t-30 12.5t-33.5 6q-68 0 -92 -88zM367 311q0 -57 43 -91t110 -34q59 0 103.5 30t64.5 63v165l-162 -10q-159 -6 -159 -123 z" />
<glyph unicode="&#xe4;" horiz-adv-x="1107" d="M39 299q0 106 61.5 177t145.5 99.5t186 32.5l254 10v23q0 162 -207 162q-86 0 -173 -29t-136 -61l-86 213q205 102 432 102q250 0 377 -117q121 -115 121 -342v-569h-314l-6 107q-35 -35 -59.5 -55.5t-89 -47.5t-139.5 -27q-150 0 -258.5 82t-108.5 240zM219 1264 q0 61 40 99t99.5 38t98.5 -38t39 -99.5t-39 -98.5t-98.5 -37t-99.5 38.5t-40 97.5zM367 311q0 -57 43 -91t110 -34q59 0 103.5 30t64.5 63v165l-162 -10q-159 -6 -159 -123zM586 1263.5q0 61.5 39 99.5t98 38q61 0 100 -38t39 -99.5t-39 -98.5t-100 -37q-59 0 -98 37 t-39 98.5z" />
<glyph unicode="&#xe5;" horiz-adv-x="1107" d="M39 299q0 106 61.5 177t145.5 99.5t186 32.5l254 10v23q0 162 -207 162q-86 0 -173 -29t-136 -61l-86 213q205 102 432 102q250 0 377 -117q121 -115 121 -342v-569h-314l-6 106q-35 -35 -59.5 -55t-89 -47t-139.5 -27q-150 0 -258.5 82t-108.5 240zM311 1317 q0 94 66.5 152.5t167 58.5t166 -58.5t65.5 -152.5t-65.5 -151.5t-166 -57.5t-167 57.5t-66.5 151.5zM367 311q0 -57 43 -91t110 -34q59 0 103.5 30t64.5 63v165l-162 -10q-159 -6 -159 -123zM442 1317q0 -41 28 -69.5t75 -28.5q45 0 72.5 28.5t27.5 69.5q0 43 -26.5 71.5 t-73.5 28.5t-75 -28.5t-28 -71.5z" />
<glyph unicode="&#xe6;" horiz-adv-x="1771" d="M39 299q0 82 35 143.5t94 95t124.5 50t143.5 20.5l250 10v25q0 78 -53 119t-154 41q-168 0 -309 -90l-86 213q205 102 432 102q182 0 281 -61q29 -18 77 -68q125 129 348.5 129t365 -137t141.5 -356l-7 -109h-718q8 -100 80.5 -155.5t177.5 -55.5q162 0 303 96l129 -170 q-2 0 -20.5 -16t-35 -27.5t-47 -31t-67.5 -33t-82 -27.5t-103.5 -21.5t-121.5 -7.5q-260 0 -406 166q-88 -88 -177 -127t-226 -39q-156 0 -262.5 83t-106.5 239zM367 311q0 -57 42 -91t109 -34q61 0 118.5 33t80.5 70q-33 82 -33 155l-156 -8q-161 -10 -161 -125zM1006 612 h415q-2 78 -56 140.5t-148 62.5q-96 0 -150.5 -61.5t-60.5 -141.5z" />
<glyph unicode="&#xe7;" horiz-adv-x="987" d="M49 502q0 242 159 384t378 142q115 0 209 -26.5t131 -53.5l35 -26l-72 -248q-115 90 -260 90q-106 0 -178 -69.5t-72 -186.5q0 -119 69.5 -189.5t184.5 -70.5q68 0 132 24.5t95 49.5l29 24l78 -248q-111 -92 -269 -112l-145 -283h-281l193 285q-172 35 -294 168t-122 346 z" />
<glyph unicode="&#xe8;" horiz-adv-x="1142" d="M49 504q0 242 155.5 383t389.5 141q225 0 365.5 -136t140.5 -357l-4 -109h-719q10 -104 80.5 -157.5t177.5 -53.5q162 0 303 96l129 -170l-18 -16q-20 -16 -37 -27l-48 -32q-30 -19 -67 -32.5t-82 -27.5t-104.5 -21.5t-122.5 -7.5q-240 0 -389.5 140.5t-149.5 386.5z M289 1413h280l162 -297h-233zM379 612h416q-2 78 -56.5 140.5t-150.5 62.5q-94 0 -149.5 -61.5t-59.5 -141.5z" />
<glyph unicode="&#xe9;" horiz-adv-x="1142" d="M49 504q0 242 155.5 383t389.5 141q225 0 365.5 -136t140.5 -357l-4 -109h-719q10 -104 80.5 -157.5t177.5 -53.5q162 0 303 96l129 -170l-18 -16q-20 -16 -37 -27l-48 -32q-30 -19 -67 -32.5t-82 -27.5t-104.5 -21.5t-122.5 -7.5q-240 0 -389.5 140.5t-149.5 386.5z M379 612h416q-2 78 -56.5 140.5t-150.5 62.5q-94 0 -149.5 -61.5t-59.5 -141.5zM440 1116l164 297h281l-211 -297h-234z" />
<glyph unicode="&#xea;" horiz-adv-x="1142" d="M49 504q0 242 155.5 383t389.5 141q225 0 365.5 -136t140.5 -357l-4 -109h-719q10 -104 80.5 -157.5t177.5 -53.5q162 0 303 96l129 -170l-18 -16q-20 -16 -37 -27l-48 -32q-30 -19 -67 -32.5t-82 -27.5t-104.5 -21.5t-122.5 -7.5q-240 0 -389.5 140.5t-149.5 386.5z M256 1116l176 297h211l177 -297h-222l-110 189l-111 -189h-221zM379 612h416q-2 78 -56.5 140.5t-150.5 62.5q-94 0 -149.5 -61.5t-59.5 -141.5z" />
<glyph unicode="&#xeb;" horiz-adv-x="1142" d="M49 504q0 242 155.5 383t389.5 141q225 0 365.5 -136t140.5 -357l-4 -109h-719q10 -104 80.5 -157.5t177.5 -53.5q162 0 303 96l129 -170l-18 -16q-20 -16 -37 -27l-48 -32q-30 -19 -67 -32.5t-82 -27.5t-104.5 -21.5t-122.5 -7.5q-240 0 -389.5 140.5t-149.5 386.5z M272 1264q0 61 40 99t99.5 38t98.5 -38t39 -99.5t-39 -98.5t-98.5 -37t-99.5 38.5t-40 97.5zM379 612h416q-2 78 -56.5 140.5t-150.5 62.5q-94 0 -149.5 -61.5t-59.5 -141.5zM639 1263.5q0 61.5 39 99.5t100 38q59 0 98 -38t39 -99.5t-38.5 -98.5t-98.5 -37q-61 0 -100 37 t-39 98.5z" />
<glyph unicode="&#xec;" horiz-adv-x="552" d="M-2 1413h281l161 -297h-231zM113 0v1010h227v-1010h-327z" />
<glyph unicode="&#xed;" horiz-adv-x="552" d="M113 0v1010h227v-1010h-327zM113 1116l161 297h281l-209 -297h-233z" />
<glyph unicode="&#xee;" horiz-adv-x="552" d="M-53 1116l174 297h211l176 -297h-221l-111 189l-110 -189h-219zM113 0v1010h227v-1010h-327z" />
<glyph unicode="&#xef;" horiz-adv-x="552" d="M-45 1264q0 61 40 99t99.5 38t98 -38t38.5 -99.5t-38.5 -98.5t-98 -37t-99.5 38.5t-40 97.5zM113 0v1010h227v-1010h-327zM322 1263.5q0 61.5 38.5 99.5t100.5 38q59 0 98 -38t39 -99.5t-39 -98.5t-98 -37q-61 0 -100 37t-39 98.5z" />
<glyph unicode="&#xf0;" horiz-adv-x="1220" d="M49 496q0 221 153.5 357t342.5 136q135 0 200 -59q-66 119 -217 246l-229 -132l-76 136l178 100q-127 88 -184 121l227 125q92 -51 193 -125l244 139l75 -135l-192 -107l23 -22l46 -42q24 -22 53 -53.5t48 -56.5q66 -86 107.5 -154.5t81.5 -199.5t40 -274 q0 -233 -157.5 -376t-401.5 -143q-242 0 -398.5 143t-156.5 376zM381 502q0 -113 61.5 -184.5t164 -71.5t165 71.5t62.5 184.5q0 111 -62.5 182.5t-165 71.5t-164 -71.5t-61.5 -182.5z" />
<glyph unicode="&#xf1;" horiz-adv-x="1202" d="M109 0v1010h227l-2 -146h4q100 164 293 164q205 0 287 -114.5t82 -317.5v-596h-328v526q0 115 -30.5 174.5t-125.5 59.5q-180 0 -180 -260v-500h-327zM233 1163q4 96 72 166t160 70q80 0 158 -45q82 -49 116 -49q72 0 95 88l139 -21q-4 -96 -71.5 -165.5t-160.5 -69.5 q-74 0 -157 45q-6 4 -23.5 14t-30 16.5t-30 12.5t-33.5 6q-68 0 -94 -88z" />
<glyph unicode="&#xf2;" horiz-adv-x="1220" d="M49 501.5q0 239.5 159 383t402.5 143.5t401 -143.5t157.5 -383t-157.5 -382t-401.5 -142.5q-246 0 -403.5 142.5t-157.5 382zM307 1413h277l164 -297h-234zM381 508q0 -115 61.5 -188.5t167.5 -73.5q104 0 167 73.5t63 188.5t-62.5 188.5t-167.5 73.5 q-106 0 -167.5 -73.5t-61.5 -188.5z" />
<glyph unicode="&#xf3;" horiz-adv-x="1220" d="M49 501.5q0 239.5 159 383t402.5 143.5t401 -143.5t157.5 -383t-157.5 -382t-401.5 -142.5q-246 0 -403.5 142.5t-157.5 382zM381 508q0 -115 61.5 -188.5t167.5 -73.5q104 0 167 73.5t63 188.5t-62.5 188.5t-167.5 73.5q-106 0 -167.5 -73.5t-61.5 -188.5zM473 1116 l162 297h280l-208 -297h-234z" />
<glyph unicode="&#xf4;" horiz-adv-x="1220" d="M49 501.5q0 239.5 159 383t402.5 143.5t401 -143.5t157.5 -383t-157.5 -382t-401.5 -142.5q-246 0 -403.5 142.5t-157.5 382zM279 1116l176 297h211l174 -297h-219l-111 189l-110 -189h-221zM381 508q0 -115 61.5 -188.5t167.5 -73.5q104 0 167 73.5t63 188.5 t-62.5 188.5t-167.5 73.5q-106 0 -167.5 -73.5t-61.5 -188.5z" />
<glyph unicode="&#xf5;" horiz-adv-x="1220" d="M49 501.5q0 239.5 159 383t402.5 143.5t401 -143.5t157.5 -383t-157.5 -382t-401.5 -142.5q-246 0 -403.5 142.5t-157.5 382zM240 1163q2 96 71.5 166t161.5 70q76 0 156 -45q82 -49 116 -49q72 0 95 88l139 -21q-2 -96 -70.5 -165.5t-160.5 -69.5q-74 0 -158 45 q-6 4 -23.5 14t-30 16.5t-30 12.5t-33.5 6q-68 0 -92 -88zM381 508q0 -115 61.5 -188.5t167.5 -73.5q104 0 167 73.5t63 188.5t-62.5 188.5t-167.5 73.5q-106 0 -167.5 -73.5t-61.5 -188.5z" />
<glyph unicode="&#xf6;" horiz-adv-x="1220" d="M49 501.5q0 239.5 159 383t402.5 143.5t401 -143.5t157.5 -383t-157.5 -382t-401.5 -142.5q-246 0 -403.5 142.5t-157.5 382zM289 1263.5q0 61.5 39 99.5t98 38q61 0 100 -38t39 -99.5t-39 -98.5t-100 -37q-59 0 -98 37t-39 98.5zM381 508q0 -115 61.5 -188.5 t167.5 -73.5q104 0 167 73.5t63 188.5t-62.5 188.5t-167.5 73.5q-106 0 -167.5 -73.5t-61.5 -188.5zM655 1263.5q0 61.5 39 99.5t98.5 38t99.5 -38t40 -99q0 -59 -40 -97.5t-99.5 -38.5t-98.5 37t-39 98.5z" />
<glyph unicode="&#xf7;" horiz-adv-x="1435" d="M156 588v237h1124v-237h-1124zM545 311.5q0 71.5 51 122.5t123 51t122 -51t50 -123q0 -70 -50 -121t-122 -51t-123 50.5t-51 122zM545 1102q0 72 51 122t123 50t122 -51.5t50 -120.5q0 -72 -50 -123t-122 -51t-123 51t-51 123z" />
<glyph unicode="&#xf8;" horiz-adv-x="1220" d="M45 76l107 104q-102 139 -103 322q0 240 159 383t402 143q182 0 324 -84l113 109l124 -121l-106 -105q104 -137 104 -325q0 -240 -157.5 -382.5t-401.5 -142.5q-188 0 -327 86l-113 -108zM375 508q0 -53 16 -102l342 335q-51 35 -123 35q-106 0 -170.5 -74.5 t-64.5 -193.5zM492 272q53 -33 118 -32q109 0 173.5 74.5t64.5 193.5q0 53 -17 98z" />
<glyph unicode="&#xf9;" horiz-adv-x="1185" d="M102 399v611h228v-566q0 -197 150 -196q84 0 127 60.5t43 164.5v537h227v-1010h-315l-2 115q-37 -53 -116 -95.5t-179 -42.5q-199 0 -289 119q-74 104 -74 303zM283 1413h280l164 -297h-233z" />
<glyph unicode="&#xfa;" horiz-adv-x="1185" d="M102 399v611h228v-566q0 -197 150 -196q84 0 127 60.5t43 164.5v537h227v-1010h-315l-2 115q-37 -53 -116 -95.5t-179 -42.5q-199 0 -289 119q-74 104 -74 303zM446 1116l162 297h281l-209 -297h-234z" />
<glyph unicode="&#xfb;" horiz-adv-x="1185" d="M102 399v611h228v-566q0 -197 150 -196q84 0 127 60.5t43 164.5v537h227v-1010h-315l-2 115q-37 -53 -116 -95.5t-179 -42.5q-199 0 -289 119q-74 104 -74 303zM258 1116l176 297h211l177 -297h-222l-110 189l-111 -189h-221z" />
<glyph unicode="&#xfc;" horiz-adv-x="1185" d="M102 399v611h228v-566q0 -197 150 -196q84 0 127 60.5t43 164.5v537h227v-1010h-315l-2 115q-37 -53 -116 -95.5t-179 -42.5q-199 0 -289 119q-74 104 -74 303zM268 1264q0 61 40 99t99.5 38t98.5 -38t39 -99.5t-39 -98.5t-98.5 -37t-99.5 38.5t-40 97.5zM635 1263.5 q0 61.5 39 99.5t98 38q61 0 100 -38t39 -99.5t-38.5 -98.5t-100.5 -37q-59 0 -98 37t-39 98.5z" />
<glyph unicode="&#xfd;" horiz-adv-x="1114" d="M-8 1010h242l229 -650l228 650h237l-450 -1106q-61 -147 -134 -219t-194 -72q-172 0 -280 49l65 242q72 -27 121 -27q25 0 37 2t30.5 17.5t30.5 46.5l37 88zM422 1116l164 297h278l-209 -297h-233z" />
<glyph unicode="&#xfe;" horiz-adv-x="1290" d="M117 -371v1784h227v-338l-2 -188q37 51 118 96t204 45q215 0 345 -148.5t130 -376t-131 -377t-346 -149.5t-320 150q2 -86 2 -178v-320h-327zM432 508q0 -117 65.5 -189.5t172 -72.5t171 72.5t64.5 189.5t-64.5 189.5t-171 72.5t-172 -72.5t-65.5 -189.5z" />
<glyph unicode="&#xff;" horiz-adv-x="1114" d="M-8 1010h242l229 -650l228 650h237l-450 -1106q-61 -147 -134 -219t-194 -72q-172 0 -280 49l65 242q72 -27 121 -27q25 0 37 2t30.5 17.5t30.5 46.5l37 88zM242 1267.5q0 61.5 38.5 99.5t98 38t99.5 -38t40 -99.5t-40 -99.5t-99.5 -38t-98 38t-38.5 99.5zM608 1267.5 q0 61.5 39 99.5t98.5 38t99.5 -38t40 -99.5t-40 -99.5t-99.5 -38t-98.5 38t-39 99.5z" />
<glyph unicode="&#x152;" horiz-adv-x="2025" d="M57 704.5q0 333.5 212 532.5t534 199q168 0 287 -62v39h841v-264h-530v-289h497v-264h-497v-328h549v-268h-860v37q-111 -61 -287 -62q-322 0 -534 198t-212 531.5zM393 712.5q0 -198.5 117 -320.5t293 -122q168 0 268 80v725q-96 78 -268 78q-176 0 -293 -121 t-117 -319.5z" />
<glyph unicode="&#x153;" horiz-adv-x="1923" d="M49 501.5q0 239.5 159 383t402 143.5q242 0 389 -160q143 160 377 160q223 0 363.5 -136t140.5 -357l-4 -109h-721q8 -100 80 -155.5t178 -55.5q164 0 305 96l127 -170q-2 0 -14 -11t-22.5 -19.5t-31 -22.5t-42 -25.5t-50 -24.5t-62.5 -23.5t-73 -19.5t-86 -13.5 t-96 -4.5q-244 0 -373 158q-133 -158 -385 -158q-246 0 -403.5 142.5t-157.5 382zM381 508q0 -115 61.5 -188.5t167.5 -73.5q104 0 167 73.5t63 188.5t-62.5 188.5t-167.5 73.5q-106 0 -167.5 -73.5t-61.5 -188.5zM1159 612h416q-4 78 -57.5 140.5t-149.5 62.5 q-94 0 -149.5 -61.5t-59.5 -141.5z" />
<glyph unicode="&#x178;" horiz-adv-x="1269" d="M-23 1413h269l289 -563l289 563h268l-491 -842v-571h-332v571zM311 1646.5q0 61.5 40 99.5t99.5 38t98.5 -38t39 -99.5t-39 -99.5t-98.5 -38t-99.5 38t-40 99.5zM682 1646.5q0 61.5 39 99.5t98.5 38t99 -38t39.5 -99.5t-39.5 -99.5t-99 -38t-98.5 38t-39 99.5z" />
<glyph unicode="&#x2c6;" horiz-adv-x="854" d="M96 1116l176 297h212l174 -297h-219l-111 189l-111 -189h-221z" />
<glyph unicode="&#x2dc;" horiz-adv-x="854" d="M57 1163q2 96 72 166t162 70q78 0 155 -45q82 -49 117 -49q72 0 94 88l140 -21q-4 -96 -72 -165.5t-160 -69.5q-74 0 -157 45q-6 4 -23.5 14t-30 16.5t-30 12.5t-33.5 6q-68 0 -92 -88z" />
<glyph unicode="&#x2000;" horiz-adv-x="938" />
<glyph unicode="&#x2001;" horiz-adv-x="1876" />
<glyph unicode="&#x2002;" horiz-adv-x="938" />
<glyph unicode="&#x2003;" horiz-adv-x="1876" />
<glyph unicode="&#x2004;" horiz-adv-x="625" />
<glyph unicode="&#x2005;" horiz-adv-x="469" />
<glyph unicode="&#x2006;" horiz-adv-x="312" />
<glyph unicode="&#x2007;" horiz-adv-x="312" />
<glyph unicode="&#x2008;" horiz-adv-x="234" />
<glyph unicode="&#x2009;" horiz-adv-x="375" />
<glyph unicode="&#x200a;" horiz-adv-x="104" />
<glyph unicode="&#x2010;" horiz-adv-x="694" d="M61 422v256h572v-256h-572z" />
<glyph unicode="&#x2011;" horiz-adv-x="694" d="M61 422v256h572v-256h-572z" />
<glyph unicode="&#x2012;" horiz-adv-x="694" d="M61 422v256h572v-256h-572z" />
<glyph unicode="&#x2013;" horiz-adv-x="985" d="M0 426v246h985v-246h-985z" />
<glyph unicode="&#x2014;" horiz-adv-x="1894" d="M33 426v246h1829v-246h-1829z" />
<glyph unicode="&#x2018;" horiz-adv-x="724" d="M135 903l209 510h268l-161 -510h-316z" />
<glyph unicode="&#x2019;" horiz-adv-x="724" d="M113 903l161 510h214l-207 -510h-268z" />
<glyph unicode="&#x201a;" horiz-adv-x="724" d="M113 -242l161 510h214l-207 -510h-268z" />
<glyph unicode="&#x201c;" horiz-adv-x="1165" d="M141 903l209 510h256l-162 -510h-303zM584 903l209 510h254l-162 -510h-301z" />
<glyph unicode="&#x201d;" horiz-adv-x="1165" d="M119 903l162 510h201l-209 -510h-254zM561 903l160 510h203l-209 -510h-254z" />
<glyph unicode="&#x201e;" horiz-adv-x="1165" d="M119 -242l162 510h201l-209 -510h-254zM561 -242l160 510h203l-209 -510h-254z" />
<glyph unicode="&#x2022;" horiz-adv-x="1234" d="M276 747.5q0 139.5 101.5 241t241 101.5t239.5 -101.5t100 -241t-100 -240.5t-239.5 -101t-241 101t-101.5 240.5z" />
<glyph unicode="&#x2026;" horiz-adv-x="1990" d="M160 153.5q0 79.5 52 127t138 47.5t138.5 -47.5t52.5 -127t-52.5 -125.5t-138.5 -46t-138 46t-52 125.5zM805 153.5q0 79.5 52 127t138 47.5t138.5 -47.5t52.5 -127t-52.5 -125.5t-138.5 -46t-138 46t-52 125.5zM1450 153.5q0 79.5 52 127t138 47.5q84 0 137.5 -47.5 t53.5 -127t-53.5 -125.5t-137.5 -46q-86 0 -138 46t-52 125.5z" />
<glyph unicode="&#x202f;" horiz-adv-x="375" />
<glyph unicode="&#x2039;" horiz-adv-x="749" d="M127 504l328 444l161 -114l-241 -330l241 -330l-161 -113z" />
<glyph unicode="&#x203a;" horiz-adv-x="749" d="M133 176l242 328l-242 332l162 112l328 -444l-328 -443z" />
<glyph unicode="&#x205f;" horiz-adv-x="469" />
<glyph unicode="&#x20ac;" d="M102 467v190h105q-2 31 -2 60v55h-103v189h136q47 225 206 354q143 119 364.5 119t367.5 -95l-76 -260q-109 102 -271 103q-219 0 -258 -221h294v-189h-430q-2 -31 -3 -55l3 -60h430v-190h-394q14 -104 82 -163.5t174 -59.5q150 0 293 123l99 -234l-13 -12l-22 -22 q-10 -9 -32 -24.5t-43.5 -27.5t-55 -25.5t-69.5 -22.5t-84 -15.5t-99 -6.5q-219 0 -366.5 124t-201.5 366h-131z" />
<glyph unicode="&#x2122;" horiz-adv-x="1816" d="M96 1266v147h621v-147h-221v-691h-177v691h-223zM760 575l57 838h240l170 -577h6l170 577h239l56 -838h-178l-33 603h-4l-180 -603h-148l-178 603h-6l-31 -603h-180z" />
<glyph unicode="&#xe000;" horiz-adv-x="1010" d="M0 1010h1010v-1010h-1010v1010z" />
<glyph unicode="&#xfb01;" horiz-adv-x="1243" d="M23 760v248h129v55q0 190 81 272q100 104 287 105l215 -27l-16 -227q-59 18 -117 18q-74 0 -97.5 -42t-23.5 -113v-41h217v-248h-217v-760h-329v760h-129zM780 1296.5q0 75.5 52.5 122.5t134.5 47t134 -47t52 -122.5t-51 -123t-135 -47.5t-135.5 47.5t-51.5 123zM803 0 v1010h227v-1010h-327z" />
<glyph unicode="&#xfb02;" horiz-adv-x="1253" d="M23 760v248h129v59q0 176 79 264q98 109 289 109l215 -27l-16 -227q-55 18 -117 18q-121 0 -121 -131v-65h217v-248h-217v-760h-329v760h-129zM809 0v1413h228v-1413h-328z" />
<glyph unicode="&#xfb03;" horiz-adv-x="1880" d="M23 760v248h129v55q0 188 81 272q98 104 283 105q57 0 112.5 -7.5t84.5 -13.5l26 -6l-16 -227q-63 18 -121 18q-121 0 -121 -131v-65h234v55q0 188 82 272q98 104 283 105q57 0 112.5 -7.5t83.5 -13.5l27 -6l-17 -227q-63 18 -120 18q-121 0 -121 -131v-65h217v-248h-217 v-760h-330v760h-334v-760h-329v760h-129zM1417 1296.5q0 75.5 52.5 122.5t134.5 47t134 -47t52 -122.5t-51 -123t-135 -47.5t-135.5 47.5t-51.5 123zM1440 0v1010h227v-1010h-327z" />
<glyph unicode="&#xfb04;" horiz-adv-x="1886" d="M23 760v248h129v55q0 188 81 272q98 104 283 105q57 0 112.5 -7.5t84.5 -13.5l26 -6l-16 -227q-63 18 -121 18q-121 0 -121 -131v-65h234v55q0 188 82 272q98 104 283 105q57 0 112.5 -7.5t83.5 -13.5l27 -6l-17 -227q-63 18 -120 18q-121 0 -121 -131v-65h217v-248h-217 v-760h-330v760h-334v-760h-329v760h-129zM1444 0v1413h228v-1413h-328z" />
</font>
</defs>
</svg>
