<?xml version="1.0" standalone="no"?>
<!DOCTYPE svg PUBLIC "-//W3C//DTD SVG 1.1//EN" "http://www.w3.org/Graphics/SVG/1.1/DTD/svg11.dtd" >
<svg xmlns="http://www.w3.org/2000/svg">
<metadata>
This is a custom SVG webfont generated by Fontspring.
</metadata>
<defs>
<font id="webfontfRg3hcIN" horiz-adv-x="1200" >
<font-face units-per-em="2048" ascent="1638" descent="-410" />
<missing-glyph horiz-adv-x="407" />
<glyph unicode=" "  horiz-adv-x="407" />
<glyph unicode="&#x09;" horiz-adv-x="407" />
<glyph unicode="&#xa0;" horiz-adv-x="407" />
<glyph unicode="!" horiz-adv-x="616" d="M207 1413h205l-19 -1036h-170zM444 106q0 -57 -37.5 -91.5t-97.5 -34.5q-61 0 -99 34.5t-38 91.5q0 59 38 94.5t99 35.5q59 0 97 -35.5t38 -94.5z" />
<glyph unicode="&#x22;" horiz-adv-x="913" d="M528 1413h189l-23 -438h-145zM197 1413h188l-20 -438h-148z" />
<glyph unicode="#" horiz-adv-x="1222" d="M1147 1030v-127h-248l-47 -309h229v-129h-250l-65 -426h-131l65 426h-272l-68 -426h-131l68 426h-221v129h241l48 309h-224v127h244l68 428h129l-66 -428h272l68 428h131l-67 -428h227zM721 594l47 309h-272l-50 -309h275z" />
<glyph unicode="$" d="M1063 381q0 -180 -145 -293q-106 -86 -246 -100l-2 -150h-115v148q-131 2 -242.5 69.5t-175.5 184.5l119 112q41 -92 129 -149.5t180 -59.5l2 506l-75 35q-109 49 -160 90q-135 106 -135 281q0 162 120 268q98 86 261 102l2 140h114v-142q221 -18 332 -190l-100 -117 q-88 141 -242 158l-2 -473l123 -58q258 -114 258 -362zM573 842l2 434q-92 -10 -146 -65.5t-54 -143.5q0 -55 27.5 -98t58.5 -64.5t80 -46.5zM883 358q0 86 -40 137.5t-116 88.5l-51 24l-2 -467q80 4 144.5 66.5t64.5 150.5z" />
<glyph unicode="%" horiz-adv-x="1595" d="M1532 315.5q0 -151.5 -94.5 -246t-239.5 -94.5t-239.5 94.5t-94.5 246t94.5 245.5t239.5 94t239.5 -94t94.5 -245.5zM1184 1446l102 -62l-874 -1431l-103 61zM731 1083q0 -152 -94 -247t-239.5 -95t-240 95.5t-94.5 246.5q0 150 94.5 245t240 95t239.5 -95t94 -245z M1389 317.5q0 94.5 -52.5 153.5t-138.5 59t-138 -59t-52 -153.5t52 -154t138 -59.5t138.5 59.5t52.5 154zM588 1083.5q0 94.5 -52.5 153.5t-138.5 59t-138 -59t-52 -153.5t52 -153t138 -58.5t138.5 58.5t52.5 153z" />
<glyph unicode="&#x26;" horiz-adv-x="1415" d="M1401 12v-12h-236l-174 203q-111 -113 -219 -170.5t-258 -57.5q-190 0 -314 105.5t-124 290.5q0 152 96 251t274 189q-4 4 -26.5 30.5t-28.5 35.5l-25 33q-19 26 -25.5 39.5t-20 39t-18.5 46t-10 47t-5 53.5q0 137 101 219t259 82q156 0 254 -82t98 -215 q0 -203 -280 -361l274 -323q33 39 91.5 133t84.5 153l154 -69q-29 -57 -99.5 -168t-119.5 -168zM821 1135q0 76 -47 116.5t-125 40.5q-76 0 -125 -45t-49 -121q0 -84 78 -174l57 -65q41 23 64.5 39t64.5 49t61.5 74t20.5 86zM881 322l-326 376l-59 -32q-63 -37 -104.5 -67 t-79.5 -89t-38 -129q0 -109 76 -179.5t189 -70.5q102 0 194.5 58.5t147.5 132.5z" />
<glyph unicode="'" horiz-adv-x="622" d="M217 1413h189l-21 -438h-147z" />
<glyph unicode="(" horiz-adv-x="581" d="M526 -236l-125 -67q-301 451 -301 940t301 940l125 -68q-92 -137 -169.5 -381.5t-77.5 -490.5t77.5 -491t169.5 -382z" />
<glyph unicode=")" horiz-adv-x="581" d="M481 636.5q0 -491.5 -303 -939.5l-125 67q92 137 170 382t78 491t-78 490.5t-170 381.5l125 68q303 -449 303 -940.5z" />
<glyph unicode="*" horiz-adv-x="1075" d="M874 1274l46 -123l-306 -90l201 -264l-106 -74l-172 278l-170 -278l-107 74l201 264l-305 90l45 123l286 -115l-18 295h137l-18 -295z" />
<glyph unicode="+" horiz-adv-x="1366" d="M1219 782v-151h-459v-459h-152v459h-461v151h461v459h152v-459h459z" />
<glyph unicode="," horiz-adv-x="616" d="M268 217h201l-188 -504h-156z" />
<glyph unicode="-" horiz-adv-x="598" d="M547 643v-164h-496v164h496z" />
<glyph unicode="." horiz-adv-x="616" d="M444 106q0 -57 -37.5 -91.5t-97.5 -34.5q-61 0 -99 34.5t-38 91.5q0 59 38 94.5t99 35.5q59 0 97 -35.5t38 -94.5z" />
<glyph unicode="/" horiz-adv-x="1064" d="M895 1616l131 -57l-852 -1749l-131 59z" />
<glyph unicode="0" d="M1141 705q0 -193 -53.5 -352.5t-179.5 -267.5t-308 -108t-308 108t-179.5 267.5t-53.5 352.5q0 195 54.5 354.5t180.5 267t306 107.5q137 0 243.5 -61.5t170 -166t95.5 -231.5t32 -270zM940 709q0 252 -87 404.5t-253 152.5t-253 -152.5t-87 -404.5q0 -250 87 -403.5 t253 -153.5t253 153.5t87 403.5z" />
<glyph unicode="1" horiz-adv-x="892" d="M596 1413v-1413h-193v1268h-276v145h469z" />
<glyph unicode="2" d="M1110 164v-164h-954l-29 133l500 473q106 102 167.5 193.5t61.5 197.5q0 121 -79 198t-212 77q-207 0 -346 -228l-104 117q43 94 160.5 183.5t302.5 89.5q213 0 343 -115t130 -301q0 -82 -29 -160t-78 -142.5t-87 -104.5t-87 -85q-12 -10 -18 -16l-363 -346h721z" />
<glyph unicode="3" d="M1075 395q0 -188 -144.5 -301.5t-365.5 -113.5q-274 0 -459 239l111 121q27 -33 59.5 -67.5t117.5 -83t167 -48.5q141 0 229.5 69t88.5 193q0 123 -83 189.5t-210 66.5h-105v158h105q115 0 184.5 60.5t69.5 169t-77 169t-190 60.5q-172 0 -337 -162l-93 119 q84 92 186.5 146.5t260.5 54.5q182 0 312 -100.5t130 -266.5q0 -139 -69.5 -215t-159.5 -104v-7q100 -18 186 -107t86 -239z" />
<glyph unicode="4" d="M1159 473v-164h-205v-309h-192v309h-713v146l699 966h206v-948h205zM244 471h520v717z" />
<glyph unicode="5" d="M1079 453q0 -221 -154.5 -349.5t-367.5 -128.5q-178 0 -296 75t-169 163l111 115q47 -82 142 -135.5t210 -53.5q133 0 230.5 81t97.5 232.5t-97.5 232.5t-230.5 81q-164 0 -250 -76l-100 60l123 663h710v-160h-567l-74 -374q82 37 201 36q188 0 334.5 -122.5 t146.5 -339.5z" />
<glyph unicode="6" d="M1114 463q0 -209 -132 -348.5t-349 -139.5q-283 0 -428 244q-98 162 -99 461q0 362 166 567q150 186 406 187q98 0 192.5 -33t121.5 -52l83 -59l-84 -133q-145 121 -311 121q-162 0 -262 -131q-121 -158 -121 -451q111 201 383 201q176 0 305 -119.5t129 -314.5zM922 442 q0 129 -77 219.5t-216.5 90.5t-218 -90.5t-78.5 -219.5t78.5 -219t218 -90t216.5 90t77 219z" />
<glyph unicode="7" d="M1085 1413l54 -115l-680 -1298h-209l668 1253h-795v160h962z" />
<glyph unicode="8" d="M1087 391q0 -195 -136 -304.5t-351 -109.5t-350 110t-135 304q0 131 71.5 223.5t192.5 128.5v7q-221 84 -221 317q0 168 128 267.5t314 99.5t314 -99.5t128 -267.5q0 -231 -219 -319v-5q121 -39 192.5 -131t71.5 -221zM850 1049q0 106 -70.5 167.5t-179 61.5 t-179.5 -61.5t-71 -167.5q0 -109 69.5 -169.5t180.5 -60.5t180.5 60.5t69.5 169.5zM891 405.5q0 122.5 -82 195.5t-209 73t-209 -73t-82 -195.5t84 -195.5t207 -73t207 73t84 195.5z" />
<glyph unicode="9" d="M1094 729q0 -358 -166 -567q-150 -186 -400 -187q-236 0 -409 146l84 131q49 -47 135 -82t186 -35q164 0 260 129q119 158 119 457q-43 -86 -137 -147.5t-246 -61.5q-174 0 -304 120t-130 314q0 209 132 348.5t349 139.5q279 0 428 -244q99 -158 99 -461zM868 971 q0 129 -78.5 219t-218 90t-216 -90t-76.5 -219t76.5 -219t216 -90t218 90t78.5 219z" />
<glyph unicode=":" horiz-adv-x="616" d="M444 860.5q0 -57.5 -37.5 -93.5t-97.5 -36q-61 0 -99 36t-38 93.5t38 93t99 35.5q59 0 97 -35.5t38 -93zM444 106q0 -57 -37.5 -91.5t-97.5 -34.5q-61 0 -99 34.5t-38 91.5q0 59 38 94.5t99 35.5q59 0 97 -35.5t38 -94.5z" />
<glyph unicode=";" horiz-adv-x="616" d="M444 860.5q0 -57.5 -37.5 -93.5t-97.5 -36q-61 0 -99 36t-38 93.5t38 93t99 35.5q59 0 97 -35.5t38 -93zM268 217h201l-188 -504h-156z" />
<glyph unicode="&#x3c;" horiz-adv-x="1366" d="M1219 330v-166l-1072 459v168l1072 458v-166l-881 -376z" />
<glyph unicode="=" horiz-adv-x="1366" d="M1219 967v-150h-1072v150h1072zM1219 596v-152h-1072v152h1072z" />
<glyph unicode="&#x3e;" horiz-adv-x="1366" d="M1219 791v-168l-1072 -459v166l881 377l-881 376v166z" />
<glyph unicode="?" horiz-adv-x="1007" d="M893 1098q0 -78 -27.5 -143.5t-55.5 -98.5t-85 -88q-18 -18 -50 -47l-48 -44q-16 -15 -34 -38t-26 -43q-14 -31 -16 -76l-4 -143h-166l-4 145q-2 76 22.5 137.5t48 88t72.5 71.5l119 109q66 61 66 149q0 90 -62.5 141.5t-167.5 51.5q-94 0 -162.5 -44t-105.5 -108 l-86 123q39 70 132 131.5t251 61.5q174 0 281.5 -99.5t107.5 -236.5zM600 106q0 -57 -37 -91.5t-98.5 -34.5t-98 34.5t-36.5 91.5q0 59 36.5 94.5t98 35.5t98.5 -35.5t37 -94.5z" />
<glyph unicode="@" horiz-adv-x="1638" d="M1554 578q0 -260 -159 -426q-139 -152 -308 -152q-147 0 -172 129q-129 -129 -262 -129q-39 0 -77.5 14.5t-78.5 47t-65.5 98t-25.5 155.5q0 129 56 255t163.5 212t236.5 86q158 0 230 -94l6 -8l20 65h133l-174 -546q-27 -72 -17.5 -120t68.5 -48q109 0 208.5 133 t99.5 323q0 219 -159 364.5t-419 145.5q-270 0 -459.5 -187t-189.5 -474t168 -461t434 -174q45 0 90 4t82 10t76 15.5t67.5 18.5t59.5 23l50 21q19 8 44 21.5t35 19.5t28 19l17 10l45 -84q-2 -2 -22 -16l-36 -24q-17 -11 -51 -29.5t-67 -34t-82 -31t-99.5 -26.5t-115 -18.5 t-131.5 -7.5q-307 0 -512 205t-205 539q0 221 108.5 400t284.5 274.5t377 95.5q319 0 518 -188q182 -172 182 -426zM973 375l90 280l-4 7q-4 6 -11 14l-18 19q-10 11 -25.5 21.5t-35 19.5t-47 14.5t-58.5 5.5q-131 0 -223 -131q-98 -135 -98 -297q0 -113 46 -160t111 -47 q72 0 152 60.5t121 193.5z" />
<glyph unicode="A" horiz-adv-x="1331" d="M752 1417l577 -1417h-221l-145 369h-607l-145 -369h-209l576 1417h174zM412 535h495l-248 634z" />
<glyph unicode="B" horiz-adv-x="1202" d="M1122 401q0 -188 -151 -309q-117 -92 -357 -92h-458v1413h281q231 0 335 -67q152 -98 152 -287q0 -109 -61.5 -195t-153.5 -114v-5q145 -31 229 -119t84 -225zM825 1036q0 129 -94 181q-70 39 -194 38h-183v-448h166q154 0 211 43q94 69 94 186zM918 410q0 125 -103 194 q-76 51 -248 51h-213v-493h213q176 0 248 49q103 70 103 199z" />
<glyph unicode="C" horiz-adv-x="1361" d="M1229 330l86 -146q-186 -209 -516 -209q-313 0 -518 202t-205 527.5t206.5 527.5t516.5 202q311 0 501 -187l-83 -160q-49 63 -163 118t-247 55q-231 0 -378.5 -153t-147.5 -398.5t148.5 -398t377.5 -152.5q264 0 422 172z" />
<glyph unicode="D" horiz-adv-x="1404" d="M1329 706.5q0 -321.5 -219 -522.5q-201 -184 -528 -184h-426v1413h426q328 0 528 -184q219 -201 219 -522.5zM1126 707q0 246 -168 405q-139 131 -376 131h-228v-1071h228q238 0 376 131q168 160 168 404z" />
<glyph unicode="E" horiz-adv-x="1087" d="M999 168v-168h-843v1413h827v-166h-629v-422h594v-166h-594v-491h645z" />
<glyph unicode="F" horiz-adv-x="1011" d="M940 1413v-166h-586v-471h551v-166h-551v-610h-198v1413h784z" />
<glyph unicode="G" horiz-adv-x="1529" d="M1397 754v-549q-229 -229 -600 -230q-307 0 -514 203t-207 529q0 324 205.5 525.5t513.5 201.5q342 0 561 -236l10 -10l-135 -125q-172 201 -436 201q-223 0 -368.5 -150.5t-145.5 -406.5q0 -254 149.5 -405.5t376.5 -151.5q256 0 383 114l14 15v313h-381v162h574z" />
<glyph unicode="H" horiz-adv-x="1462" d="M1305 1413v-1413h-199v659h-752v-659h-198v1413h198v-584h752v584h199z" />
<glyph unicode="I" horiz-adv-x="509" d="M354 1413v-1413h-198v1413h198z" />
<glyph unicode="J" horiz-adv-x="509" d="M354 1413v-1409q0 -201 -63 -299q-84 -115 -228 -115q-37 0 -73.5 5.5t-56 11.5t-23.5 8l4 152q39 -16 109 -17q82 0 107.5 64.5t25.5 183.5v1415h198z" />
<glyph unicode="K" horiz-adv-x="1185" d="M633 856l577 -856h-241l-469 709l-146 -148v-561h-198v1413h198v-602l576 602h241z" />
<glyph unicode="L" horiz-adv-x="872" d="M852 170v-170h-696v1413h198v-1243h498z" />
<glyph unicode="M" horiz-adv-x="1748" d="M1528 1413l129 -1413h-197l-92 1116h-6l-432 -1128h-113l-432 1128h-6l-90 -1116h-197l127 1413h246l407 -1091h5l407 1091h244z" />
<glyph unicode="N" horiz-adv-x="1515" d="M1358 1413v-1413h-195l-815 1126q4 -190 4 -374v-752h-196v1413h209l800 -1110q-2 174 -2 361v749h195z" />
<glyph unicode="O" horiz-adv-x="1609" d="M1534 704.5q0 -329.5 -211 -529.5t-518 -200t-518 200t-211 529.5t211 529.5t518 200t518 -200t211 -529.5zM1331 709q0 252 -151.5 402.5t-374.5 150.5t-374.5 -150.5t-151.5 -402.5q0 -250 151.5 -401.5t374.5 -151.5t374.5 150.5t151.5 402.5z" />
<glyph unicode="P" horiz-adv-x="1087" d="M1032 1010q0 -188 -137 -303q-117 -100 -342 -101h-199v-606h-198v1413h297q225 0 342 -100q137 -119 137 -303zM827 1010q0 125 -86 186q-78 55 -204 55h-183v-483h183q127 0 204 53q86 64 86 189z" />
<glyph unicode="Q" horiz-adv-x="1609" d="M1534 705q0 -315 -197 -519l156 -178l-129 -114l-162 186q-178 -104 -397 -105q-307 0 -518 200t-211 529.5t211 529.5t518 200t518 -199.5t211 -529.5zM1331 709q0 252 -151.5 402.5t-374.5 150.5t-374.5 -150.5t-151.5 -402.5q0 -250 151.5 -401.5t374.5 -151.5 q147 0 270 69l-119 135l129 115l121 -139q125 152 125 373z" />
<glyph unicode="R" horiz-adv-x="1105" d="M711 629l403 -629h-240l-368 608h-152v-608h-198v1413h299q215 0 340 -98q137 -111 137 -299q0 -170 -95 -266t-226 -121zM827 1012q0 125 -90 188q-70 51 -237 51h-146v-479h146q168 0 237 49q90 68 90 191z" />
<glyph unicode="S" horiz-adv-x="1093" d="M1020 393q0 -186 -148 -307q-135 -111 -346 -111q-86 0 -162.5 24t-136 68t-90.5 73.5t-67 72.5l116 133q61 -82 156.5 -142.5t202.5 -60.5q119 0 197.5 64.5t78.5 173.5q0 51 -22.5 92t-68.5 70.5t-68.5 41t-69.5 29.5q-166 66 -225 95q-86 39 -142 100q-92 96 -92 246 q0 164 129 272q125 104 326 105q231 0 405 -183l-104 -135q-143 152 -311 152q-109 0 -177.5 -51.5t-68.5 -145.5q0 -47 15 -83t45 -61.5t56.5 -40t65.5 -30.5l260 -109q102 -47 160 -114q86 -107 86 -238z" />
<glyph unicode="T" horiz-adv-x="1026" d="M1010 1413v-166h-398v-1247h-198v1247h-400v166h996z" />
<glyph unicode="U" horiz-adv-x="1366" d="M1221 1413v-835q0 -150 -22.5 -250.5t-90.5 -180.5q-150 -172 -424 -172q-276 0 -424 172q-68 80 -91.5 180.5t-23.5 250.5v835h201v-817q0 -76 3 -120t17.5 -101.5t45.5 -95.5q92 -125 272 -125q176 0 272 125q31 39 45.5 96t17.5 102t3 119v817h199z" />
<glyph unicode="V" horiz-adv-x="1220" d="M1010 1413h209l-521 -1415h-176l-520 1415h213l397 -1126z" />
<glyph unicode="W" horiz-adv-x="1902" d="M1683 1413h209l-407 -1415h-195l-340 1143l-338 -1143h-194l-408 1415h209l305 -1114l326 1114h203l325 -1114z" />
<glyph unicode="X" horiz-adv-x="1185" d="M721 729l469 -729h-240l-358 600l-356 -600h-238l467 729l-434 684h233l328 -551l330 551h233z" />
<glyph unicode="Y" horiz-adv-x="1177" d="M956 1413h224l-492 -821v-592h-199v592l-491 821h223l367 -649z" />
<glyph unicode="Z" horiz-adv-x="1159" d="M1108 170v-170h-1047v152l773 1093h-750v168h1010v-135l-785 -1108h799z" />
<glyph unicode="[" horiz-adv-x="581" d="M494 -172v-115h-388v1846h288v-117h-218v-1614h218z" />
<glyph unicode="\" horiz-adv-x="1056" d="M168 1628l846 -1638l-125 -60l-844 1641z" />
<glyph unicode="]" horiz-adv-x="581" d="M489 1559v-1846h-387v115h217v1614h-217v117h287z" />
<glyph unicode="^" horiz-adv-x="1366" d="M768 1432l373 -818h-166l-291 650l-293 -650h-166l373 818h170z" />
<glyph unicode="_" horiz-adv-x="1024" d="M1024 76v-154h-1024v154h1024z" />
<glyph unicode="`" horiz-adv-x="686" d="M348 1413l182 -297h-149l-225 297h192z" />
<glyph unicode="a" horiz-adv-x="1007" d="M891 565v-565h-191l-2 123q-137 -145 -309 -146q-141 0 -238.5 82t-97.5 220q0 139 102.5 213.5t278.5 82.5l260 11v39q0 106 -65.5 163.5t-175.5 57.5q-158 0 -293 -84l-60 131q172 98 365 98q211 0 321 -110q105 -109 105 -316zM696 258v209l-227 -14 q-221 -12 -221 -168q0 -72 53 -120t148 -48q153 0 247 141z" />
<glyph unicode="b" horiz-adv-x="1222" d="M1153 487q0 -221 -130 -365.5t-343 -144.5q-223 0 -342 177h-4v-154h-189v1413h195v-592h4q121 170 340 170q211 0 340 -142.5t129 -361.5zM952 489.5q0 149.5 -83 245.5t-226 96t-227 -96t-84 -245.5t84 -247t227 -97.5t226 97.5t83 247z" />
<glyph unicode="c" horiz-adv-x="972" d="M881 268l69 -143q-84 -84 -182 -117q-92 -31 -207 -31q-203 0 -347 140.5t-144 368t147.5 366.5t349.5 139q117 0 211 -35.5t122 -59.5t44 -44l-70 -143q-119 119 -290 118q-133 0 -224.5 -93t-91.5 -242q0 -154 88 -250.5t230 -96.5q172 0 284 113z" />
<glyph unicode="d" horiz-adv-x="1222" d="M1077 1413v-1413h-188v156h-4q-119 -178 -342 -179q-213 0 -343 144.5t-130 365.5q0 219 129 361.5t340 142.5q225 0 340 -170h4v592h194zM889 489.5q0 149.5 -83 245.5t-226.5 96t-226.5 -96t-83 -245.5t83 -247t226.5 -97.5t226.5 97.5t83 247z" />
<glyph unicode="e" horiz-adv-x="1083" d="M1024 526l-6 -86h-750q8 -143 93 -226t221 -83q37 0 73.5 5t66.5 14.5t55.5 19.5t47.5 24l36 21q13 8 26.5 18.5t15.5 10.5l82 -113l-8 -8q-8 -8 -18 -15l-25 -21q-16 -13 -37 -25l-46 -24q-26 -13 -57.5 -23.5t-66.5 -18.5t-79 -13.5t-91 -5.5q-217 0 -352 139.5 t-135 370.5q0 225 142 364.5t351 139.5q203 0 332 -130t129 -335zM270 571h568q-2 98 -75 188.5t-206 90.5t-207 -87.5t-80 -191.5z" />
<glyph unicode="f" horiz-adv-x="561" d="M639 1413l-12 -145q-55 18 -111 18q-88 0 -118.5 -54t-30.5 -153v-108h231v-158h-231v-813h-195v813h-139v158h139v98q0 178 66 260q86 106 233 107q49 0 91 -5.5t61 -11.5z" />
<glyph unicode="g" horiz-adv-x="1214" d="M1077 973v-768q0 -293 -106 -420q-152 -186 -434 -186q-231 0 -435 145l93 137q47 -41 148 -82t200 -41q182 0 266 107q74 90 74 272v49h-4q-117 -174 -340 -174q-197 0 -333 133.5t-136 356.5t136 356t333 133q119 0 205.5 -48t134.5 -124h6l-2 154h194zM889 501.5 q0 143.5 -82 238t-227 94.5q-143 0 -226.5 -94.5t-83.5 -238t82 -236.5t227.5 -93t227.5 93t82 236.5z" />
<glyph unicode="h" horiz-adv-x="1122" d="M991 580v-580h-196v551q0 59 -7.5 103t-27 87t-61.5 65.5t-105 22.5q-127 0 -190.5 -96t-63.5 -252v-481h-195v1413h195v-594h4q41 76 119 124t180 48q197 0 272.5 -108t75.5 -303z" />
<glyph unicode="i" horiz-adv-x="483" d="M369 1292.5q0 -53.5 -36 -87.5t-91 -34q-57 0 -93 34t-36 87.5t35.5 87t93.5 33.5q55 0 91 -33.5t36 -87zM340 973v-973h-197v973h197z" />
<glyph unicode="j" horiz-adv-x="483" d="M369 1292.5q0 -53.5 -36 -87.5t-91 -34q-57 0 -93 34t-36 87.5t35.5 87t93.5 33.5q55 0 91 -33.5t36 -87zM340 973v-975q0 -193 -61 -279q-90 -121 -246 -120q-35 0 -65.5 4t-45.5 8l-12 4l2 156q41 -14 92 -15q86 0 112.5 62.5t26.5 185.5v969h197z" />
<glyph unicode="k" horiz-adv-x="997" d="M586 606l430 -606h-230l-333 471l-113 -106v-365h-195v1413h195v-829l397 389h230z" />
<glyph unicode="l" horiz-adv-x="485" d="M340 1413v-1413h-195v1413h195z" />
<glyph unicode="m" horiz-adv-x="1671" d="M1544 590v-590h-194v567q0 262 -179 262q-111 0 -172 -92t-61 -231v-506h-197v567q0 262 -176 262q-111 0 -172 -92t-61 -231v-506h-197v973h197l-2 -154h6q37 72 112.5 122t167.5 50q221 0 289 -192q102 193 309 192q330 0 330 -401z" />
<glyph unicode="n" horiz-adv-x="1107" d="M981 575v-575h-197v543q0 141 -41 213.5t-161 72.5q-129 0 -189.5 -94t-60.5 -246v-489h-197v973h197l-2 -154h6q41 76 117.5 124t179.5 48q193 0 270.5 -110.5t77.5 -305.5z" />
<glyph unicode="o" horiz-adv-x="1169" d="M1100 483.5q0 -223.5 -147.5 -365t-366.5 -141.5q-221 0 -368.5 141.5t-147.5 365t147.5 365.5t368.5 142q219 0 366.5 -142t147.5 -365.5zM901 489.5q0 147.5 -86 244.5t-229.5 97t-230.5 -97t-87 -244.5t87 -246t230.5 -98.5t229.5 98.5t86 246z" />
<glyph unicode="p" horiz-adv-x="1220" d="M1151 487q0 -221 -130 -365.5t-343 -144.5q-223 0 -336 175l-2 2v-535h-197v1354h189v-154h4q129 172 346 172q211 0 340 -142.5t129 -361.5zM950 489.5q0 149.5 -83 245.5t-226 96t-226 -96t-83 -245.5t83 -247t226 -97.5t226 97.5t83 247z" />
<glyph unicode="q" horiz-adv-x="1212" d="M1077 973v-1354h-194v533h-4q-115 -174 -336 -175q-213 0 -343 144.5t-130 365.5q0 219 129 361.5t340 142.5q219 0 346 -172h6l-2 154h188zM889 489.5q0 149.5 -83 245.5t-226.5 96t-226.5 -96t-83 -245.5t83 -247t226.5 -97.5t226.5 97.5t83 247z" />
<glyph unicode="r" horiz-adv-x="686" d="M678 975l-12 -182h-9q-47 20 -106 20q-96 0 -160 -82q-59 -86 -59 -246v-485h-197v973h197l-2 -150h6q72 168 239 168q29 0 54.5 -4t38.5 -8z" />
<glyph unicode="s" horiz-adv-x="847" d="M791 285q0 -137 -101 -222q-104 -86 -270 -86q-246 0 -379 175l94 114q53 -66 134 -102.5t153 -36.5q78 0 132 33t54 106q0 25 -12 47.5t-28.5 37t-45 28.5t-46 20.5t-49.5 16.5l-38 12q-106 37 -133 51q-154 78 -154 234q0 129 95.5 203.5t232.5 74.5q213 0 332 -127 l-82 -121q-100 104 -246 105q-72 0 -113.5 -31t-41.5 -90q0 -53 49 -85t141 -60l131 -47q74 -31 113 -70q78 -74 78 -180z" />
<glyph unicode="t" horiz-adv-x="636" d="M596 168l12 -158q-76 -33 -178 -33q-139 0 -207 101q-49 74 -49 291v444h-143v158h143v291h197v-291h233v-158h-233v-440q0 -133 24 -178q29 -49 101 -50q25 0 50 5.5t38 11.5z" />
<glyph unicode="u" horiz-adv-x="1097" d="M963 975v-975h-191l-2 139q-41 -74 -121 -118t-180 -44q-182 0 -270 113q-72 96 -72 301v584h195v-576q0 -119 42 -188.5t160 -69.5q121 0 181.5 89t60.5 223v522h197z" />
<glyph unicode="v" horiz-adv-x="987" d="M782 973h203l-405 -973h-172l-406 973h205l289 -733z" />
<glyph unicode="w" horiz-adv-x="1558" d="M1339 973h199l-321 -973h-181l-256 727l-258 -727h-180l-322 973h199l225 -735l256 737h158l256 -737z" />
<glyph unicode="x" horiz-adv-x="1015" d="M623 512l395 -512h-221l-289 395l-289 -395h-221l395 512l-350 461h217l248 -350l248 350h219z" />
<glyph unicode="y" horiz-adv-x="980" d="M782 975l203 -2l-469 -1143q-49 -123 -110.5 -174t-145.5 -51q-49 0 -95 9t-67 17l-22 9l39 159q53 -23 102 -22q23 0 33 2t28.5 11t35 33.5t30.5 67.5l47 129l-389 955l205 -2l289 -756z" />
<glyph unicode="z" horiz-adv-x="933" d="M891 162v-162h-848v121l569 692h-540v158h790v-119l-567 -690h596z" />
<glyph unicode="{" horiz-adv-x="581" d="M504 -172v-115h-90q-150 0 -205 72t-55 233v373q0 170 -131 170v148q131 0 131 172v370q0 164 55 236t205 72h90v-117h-45q-78 0 -107.5 -30t-29.5 -105v-408q0 -129 -35 -182t-113 -78v-8q78 -25 113 -77t35 -181v-410q0 -76 29.5 -105.5t107.5 -29.5h45z" />
<glyph unicode="|" horiz-adv-x="581" d="M362 1638v-1882h-143v1882h143z" />
<glyph unicode="}" horiz-adv-x="581" d="M557 709v-148q-129 0 -129 -170v-373q0 -162 -55.5 -233.5t-204.5 -71.5h-92v115h47q78 0 106.5 28.5t28.5 106.5v410q0 129 35 181t115 77v8q-80 25 -115 78t-35 182v408q0 78 -28.5 106.5t-106.5 28.5h-47v117h92q150 0 205 -72t55 -236v-370q0 -172 129 -172z" />
<glyph unicode="~" horiz-adv-x="1366" d="M1104 756l104 -101q-125 -207 -305 -206q-92 0 -244 75q-143 70 -200 70q-106 0 -197 -143l-104 100q127 207 305 207q96 0 244 -76q135 -70 200 -70q111 1 197 144z" />
<glyph unicode="&#xa1;" horiz-adv-x="616" d="M444 866.5q0 -57.5 -37.5 -93.5t-97.5 -36q-61 0 -99 36t-38 93.5t38 93t99 35.5q59 0 97 -35.5t38 -93zM393 598l19 -1038h-205l16 1038h170z" />
<glyph unicode="&#xa2;" d="M987 387l57 -139q-35 -39 -129 -82t-186 -45v-182h-121v184q-199 20 -325.5 157.5t-126.5 344.5q0 205 127 343t325 160v183h121v-181q96 -6 184 -43.5t125 -78.5l-61 -144q-90 94 -248 109v-690q72 2 147.5 34.5t110.5 69.5zM608 291v676q-119 -20 -190.5 -116.5 t-71.5 -223.5t69.5 -220t192.5 -116z" />
<glyph unicode="&#xa3;" d="M1100 158v-158h-973v158h240q29 47 50 125.5t21 138.5l-14 162h-236v131h213l-45 127q-47 133 -47 233q0 154 109 256q106 102 282 103q240 0 355 -170l-94 -113l-9 12l-14 18q-6 7 -20.5 21.5t-26.5 23.5t-32.5 21.5t-40 19.5t-47.5 12t-56 5q-113 0 -167 -64.5 t-54 -150.5q0 -98 51 -238l41 -116h207v-131h-285q14 -84 15 -162q0 -59 -21.5 -138t-50.5 -126h549z" />
<glyph unicode="&#xa4;" d="M1044 295l82 -131l-8 -10q-6 -10 -12 -17.5t-19.5 -22t-26.5 -25.5t-33.5 -26.5t-42 -26.5t-50.5 -23.5t-58.5 -19.5t-67.5 -12.5t-77 -5.5q-205 0 -343 141.5t-179 393.5h-137v133l123 2q-2 39 -2 72v69h-121v134h139q35 223 176 368q139 145 348 146q201 0 361 -140 l-68 -153q-104 133 -289 133q-123 0 -210 -88t-113 -266h510v-134h-529v-69l2 -74h527v-133h-510q20 -172 107 -267.5t218 -95.5q166 0 297 142z" />
<glyph unicode="&#xa5;" d="M944 1413h221l-352 -600h250v-133h-324l-41 -82v-70h265v-133h-365v-395h-196v395h-365v133h265v68l-39 84h-326v133h250l-352 600h223l342 -641z" />
<glyph unicode="&#xa6;" horiz-adv-x="581" d="M362 1638v-641h-143v641h143zM362 639v-639h-143v639h143z" />
<glyph unicode="&#xa7;" horiz-adv-x="1251" d="M1055 514q0 -170 -166 -268l-37 -19q70 -37 122 -112.5t52 -177.5q0 -154 -117.5 -246t-290.5 -92q-311 0 -421 247l129 91q37 -92 117.5 -143.5t181.5 -51.5q98 0 157.5 48t59.5 138q0 84 -59.5 134.5t-180.5 105.5l-176 82q-203 96 -203 299q0 68 25.5 125t63.5 92 t68 54.5t52 27.5q-6 4 -16 10t-35 30.5t-44.5 52.5t-35.5 74t-16 95q0 147 105.5 235.5t266.5 88.5q281 0 396 -217l-111 -97q-92 176 -278 176q-90 0 -144.5 -45t-54.5 -129q0 -76 57.5 -125t173.5 -102l142 -64q217 -102 217 -317zM885 500q0 123 -137 188l-211 92 q-145 -49 -146 -209q0 -115 135 -186l211 -92q148 51 148 207z" />
<glyph unicode="&#xa8;" horiz-adv-x="686" d="M608 1264q0 -47 -31.5 -78t-76.5 -31t-76 31t-31 78q0 49 31 79.5t76 30.5t76.5 -30.5t31.5 -79.5zM293 1264q0 -47 -31 -78t-76 -31t-76.5 31t-31.5 78q0 49 31.5 79.5t76.5 30.5t76 -30.5t31 -79.5z" />
<glyph unicode="&#xa9;" horiz-adv-x="1611" d="M1536 706.5q0 -307.5 -212 -518.5t-517 -211q-307 0 -518 211t-211 518.5t211 518.5t518 211q305 0 517 -211t212 -518.5zM1440 706.5q0 262.5 -185.5 447.5t-447.5 185t-447.5 -185t-185.5 -447.5t185.5 -447.5t447.5 -185t447.5 185t185.5 447.5zM1092 492l63 -91 q-41 -49 -123 -89t-194 -40q-182 0 -305 122t-123 312.5t122.5 312.5t305.5 122q205 0 309 -119l-66 -98q-31 39 -94 70.5t-145 31.5q-125 0 -210 -83t-85 -232.5t83 -233.5t212 -84q148 1 250 99z" />
<glyph unicode="&#xaa;" horiz-adv-x="718" d="M612 719v-334h-141l-2 74q-27 -31 -79 -57.5t-114 -26.5q-84 0 -148.5 48t-64.5 138q0 170 238 178l166 6v13q0 63 -41 96t-107 33q-55 0 -108 -18.5t-72 -34.5l-47 92q102 66 240 65q143 0 213 -69q67 -66 67 -203zM467 541v121l-135 -5q-117 -8 -117 -90q0 -94 115 -94 q47 0 85 24t52 44z" />
<glyph unicode="&#xab;" horiz-adv-x="1001" d="M621 487l243 -329l-108 -76l-303 405l303 406l108 -80zM281 487l243 -329l-108 -76l-305 405l305 406l106 -80z" />
<glyph unicode="&#xac;" horiz-adv-x="1370" d="M1219 954v-612h-152v461h-920v151h1072z" />
<glyph unicode="&#xad;" horiz-adv-x="598" d="M547 643v-164h-496v164h496z" />
<glyph unicode="&#xae;" horiz-adv-x="1611" d="M1536 706.5q0 -307.5 -212 -518.5t-517 -211q-307 0 -518 211t-211 518.5t211 518.5t518 211q305 0 517 -211t212 -518.5zM1440 706.5q0 262.5 -185.5 447.5t-447.5 185t-447.5 -185t-185.5 -447.5t185.5 -447.5t447.5 -185t447.5 185t185.5 447.5zM909 649l228 -364 h-158l-203 350h-104v-350h-131v843l290 -2q111 0 188 -65.5t77 -177.5q0 -106 -56.5 -162t-130.5 -72zM961 880.5q0 137.5 -177 137.5h-112v-275h112q177 0 177 137.5z" />
<glyph unicode="&#xaf;" horiz-adv-x="686" d="M608 1325v-113h-530v113h530z" />
<glyph unicode="&#xb0;" horiz-adv-x="843" d="M737 1196q0 -133 -92 -222t-223 -89t-223.5 89t-92.5 222q0 131 92.5 220t223.5 89t223 -89t92 -220zM623 1196q0 82 -58.5 140.5t-142.5 58.5t-141.5 -58.5t-57.5 -140.5t57.5 -141.5t141.5 -59.5t142.5 59.5t58.5 141.5z" />
<glyph unicode="&#xb1;" horiz-adv-x="1366" d="M1219 961v-150h-459v-399h-154v399h-459v150h459v399h154v-399h459zM1219 326v-150h-1072v150h1072z" />
<glyph unicode="&#xb2;" horiz-adv-x="776" d="M700 715v-123h-606l-10 106l324 316q72 72 101.5 118t29.5 99q0 61 -45 99t-123 38q-147 0 -203 -156l-94 60q12 90 96 154.5t211 64.5q133 0 218 -69.5t85 -178.5q0 -27 -6 -53.5t-12.5 -46t-23.5 -46l-24.5 -38.5t-32 -39t-30.5 -33l-35 -34l-31 -29l-210 -209h421z " />
<glyph unicode="&#xb3;" horiz-adv-x="776" d="M709 846q0 -119 -92.5 -191.5t-223.5 -72.5q-115 0 -195.5 49t-113.5 143l98 64q23 -63 77 -99.5t126 -36.5q74 0 126 40t52 106q0 70 -50 109.5t-128 41.5h-51v115h59q63 2 106.5 39t43.5 98q0 53 -41 88t-109 35q-133 0 -190 -121l-82 70q33 76 105.5 122t172.5 46 q119 0 203 -64.5t84 -166.5q0 -141 -143 -197v-4q74 -20 120 -78.5t46 -134.5z" />
<glyph unicode="&#xb4;" horiz-adv-x="686" d="M338 1413h192l-225 -297h-149z" />
<glyph unicode="&#xb5;" horiz-adv-x="1107" d="M973 971v-971h-191l-2 131q-35 -53 -111.5 -99t-160.5 -46q-70 0 -119 23.5t-65 53.5l4 -444h-193v1352h195v-549q0 -131 45 -204t162 -73q123 0 181 77t58 208v541h197z" />
<glyph unicode="&#xb6;" horiz-adv-x="1230" d="M1114 1413v-141h-106v-1653h-148v1653h-186v-1653h-150v948q-188 4 -304 114t-116 310q0 205 120 313.5t341 108.5h549z" />
<glyph unicode="&#xb7;" horiz-adv-x="694" d="M481 592q0 -57 -37.5 -93t-97 -36t-96.5 36t-37 93t37 92t96.5 35t97 -35t37.5 -92z" />
<glyph unicode="&#xb8;" horiz-adv-x="716" d="M393 0h137l-165 -299h-179z" />
<glyph unicode="&#xb9;" horiz-adv-x="776" d="M535 1470v-880h-148v770h-170v110h218z" />
<glyph unicode="&#xba;" horiz-adv-x="806" d="M723 682q0 -133 -91 -220t-228.5 -87t-228.5 87t-91 220q0 135 91 222t228.5 87t228.5 -87t91 -222zM575 688q0 86 -50 136t-122 50q-74 0 -124 -49t-50 -137t50.5 -140t123.5 -52q72 0 122 52t50 140z" />
<glyph unicode="&#xbb;" horiz-adv-x="1001" d="M586 893l303 -406l-303 -405l-107 78l242 327l-244 328zM244 893l305 -406l-305 -405l-107 78l242 327l-244 328z" />
<glyph unicode="&#xbc;" horiz-adv-x="1822" d="M1673 299v-119h-129v-180h-145v180h-463v90l471 625h137v-596h129zM1186 1446l102 -62l-874 -1431l-103 61zM457 1413v-819h-148v709h-172v110h220zM1098 299h201v412z" />
<glyph unicode="&#xbd;" horiz-adv-x="1824" d="M1700 125v-125h-600l-21 94l295 277q147 139 148 233q0 68 -45 108t-117 40q-119 0 -205 -140l-82 86q88 178 305 179q123 0 206 -71t83 -179q0 -68 -31.5 -131.5t-61.5 -95t-87 -85.5l-203 -190h416zM1178 1446l102 -62l-874 -1431l-103 61zM453 1413v-850h-148v740 h-172v110h220z" />
<glyph unicode="&#xbe;" horiz-adv-x="1822" d="M1673 299v-119h-129v-180h-145v180h-463v90l471 625h137v-596h129zM709 846q0 -119 -92.5 -191.5t-223.5 -72.5q-115 0 -195.5 49t-113.5 143l98 64q23 -63 77 -99.5t126 -36.5q74 0 126 40t52 106q0 70 -50 109.5t-128 41.5h-51v115h59q63 2 106.5 39t43.5 98 q0 53 -41 88t-109 35q-133 0 -190 -121l-82 70q33 76 105.5 122t172.5 46q119 0 203 -64.5t84 -166.5q0 -141 -143 -197v-4q74 -20 120 -78.5t46 -134.5zM1276 1446l102 -62l-874 -1431l-103 61zM1098 299h201v412z" />
<glyph unicode="&#xbf;" horiz-adv-x="1007" d="M680 864.5q0 -57.5 -38 -93.5t-97 -36q-61 0 -99 36t-38 93.5t37.5 93t99.5 35.5q59 0 97 -35.5t38 -93zM801 -147l88 -123q-115 -190 -385 -191q-174 0 -280.5 98.5t-106.5 235.5q0 78 26.5 143.5t56 100.5t85.5 88q18 18 49 46l47 43q16 15 33.5 37.5t27.5 43.5 q14 39 15 78l4 143h166l4 -145q2 -76 -22.5 -136.5t-49 -89t-72.5 -71.5l-118 -111q-66 -59 -66 -149q0 -88 63.5 -139.5t165.5 -51.5q181 0 269 150z" />
<glyph unicode="&#xc0;" horiz-adv-x="1331" d="M563 1817l182 -297h-149l-225 297h192zM752 1417l577 -1417h-221l-145 369h-607l-145 -369h-209l576 1417h174zM412 535h495l-248 634z" />
<glyph unicode="&#xc1;" horiz-adv-x="1331" d="M768 1817h193l-226 -297h-149zM752 1417l577 -1417h-221l-145 369h-607l-145 -369h-209l576 1417h174zM412 535h495l-248 634z" />
<glyph unicode="&#xc2;" horiz-adv-x="1331" d="M745 1817l189 -297h-143l-125 202l-125 -202h-144l189 297h159zM752 1417l577 -1417h-221l-145 369h-607l-145 -369h-209l576 1417h174zM412 535h495l-248 634z" />
<glyph unicode="&#xc3;" horiz-adv-x="1331" d="M889 1767l96 -20q-6 -82 -61.5 -135t-126.5 -53q-20 0 -41 3t-37.5 9t-26.5 11l-24 12q-14 7 -17 10q-2 0 -27.5 16t-48 24.5t-45.5 8.5q-33 0 -57 -25.5t-31 -60.5l-96 20q4 82 60.5 135.5t128.5 53.5q20 0 40.5 -3.5t37 -9.5t26.5 -11l25 -12q14 -7 16 -9 q2 0 27.5 -16.5t48 -25t45.5 -8.5q33 0 57.5 25.5t30.5 60.5zM752 1417l577 -1417h-221l-145 369h-607l-145 -369h-209l576 1417h174zM412 535h495l-248 634z" />
<glyph unicode="&#xc4;" horiz-adv-x="1331" d="M930 1661q0 -49 -32 -80t-77 -31t-75.5 31t-30.5 80t30.5 78.5t75.5 29.5t77 -30.5t32 -77.5zM616 1661q0 -49 -30.5 -80t-75.5 -31t-77 31t-32 80q0 47 32 77.5t77 30.5t75.5 -30.5t30.5 -77.5zM752 1417l577 -1417h-221l-145 369h-607l-145 -369h-209l576 1417h174z M412 535h495l-248 634z" />
<glyph unicode="&#xc5;" horiz-adv-x="1331" d="M870 1683q0 -84 -59 -139t-145 -55t-145.5 55t-59.5 139t59.5 139.5t145.5 55.5t145 -55.5t59 -139.5zM752 1417l577 -1417h-221l-145 369h-607l-145 -369h-209l576 1417h174zM772 1683q0 45 -29.5 76t-77 31t-77 -30.5t-29.5 -76.5q0 -47 31 -77.5t76 -30.5t75.5 30.5 t30.5 77.5zM412 535h495l-248 634z" />
<glyph unicode="&#xc6;" horiz-adv-x="1800" d="M1712 168v-168h-786v373h-539l-225 -373h-223l888 1413h869v-166h-572v-413h537v-166h-537v-500h588zM487 537h439v714h-4z" />
<glyph unicode="&#xc7;" horiz-adv-x="1361" d="M1229 330l86 -146q-178 -199 -475 -207l-131 -284h-201l170 293q-246 31 -424 219t-178 500q0 326 206.5 527.5t516.5 201.5q311 0 501 -187l-83 -160q-49 63 -163 118t-247 55q-231 0 -378.5 -153t-147.5 -398.5t148.5 -398t377.5 -152.5q264 0 422 172z" />
<glyph unicode="&#xc8;" horiz-adv-x="1087" d="M502 1817l180 -297h-147l-226 297h193zM999 168v-168h-843v1413h827v-166h-629v-422h594v-166h-594v-491h645z" />
<glyph unicode="&#xc9;" horiz-adv-x="1087" d="M614 1817h191l-225 -297h-148zM999 168v-168h-843v1413h827v-166h-629v-422h594v-166h-594v-491h645z" />
<glyph unicode="&#xca;" horiz-adv-x="1087" d="M649 1817l189 -297h-144l-125 202l-125 -202h-143l188 297h160zM999 168v-168h-843v1413h827v-166h-629v-422h594v-166h-594v-491h645z" />
<glyph unicode="&#xcb;" horiz-adv-x="1087" d="M834 1661q0 -49 -31 -80t-76 -31t-77 31t-32 80q0 47 32 77.5t77 30.5t76 -29.5t31 -78.5zM520 1661q0 -49 -30.5 -80t-75.5 -31t-77 31t-32 80q0 47 32 77.5t77 30.5t75.5 -29.5t30.5 -78.5zM999 168v-168h-843v1413h827v-166h-629v-422h594v-166h-594v-491h645z" />
<glyph unicode="&#xcc;" horiz-adv-x="509" d="M172 1817l182 -297h-149l-225 297h192zM354 1413v-1413h-198v1413h198z" />
<glyph unicode="&#xcd;" horiz-adv-x="509" d="M340 1817h190l-225 -297h-147zM354 1413v-1413h-198v1413h198z" />
<glyph unicode="&#xce;" horiz-adv-x="509" d="M336 1817l186 -297h-143l-123 202l-125 -202h-143l186 297h162zM354 1413v-1413h-198v1413h198z" />
<glyph unicode="&#xcf;" horiz-adv-x="509" d="M520 1667q0 -47 -31.5 -77.5t-76.5 -30.5t-76 30.5t-31 77.5q0 49 31 80t76 31t76.5 -31t31.5 -80zM207 1667q0 -47 -32 -77.5t-77 -30.5t-75.5 29.5t-30.5 78.5t30.5 80t75.5 31t77 -31t32 -80zM354 1413v-1413h-198v1413h198z" />
<glyph unicode="&#xd0;" horiz-adv-x="1404" d="M1329 706.5q0 -321.5 -219 -522.5q-201 -184 -528 -184h-426v666h-133v147h133v600h426q328 0 528 -184q219 -201 219 -522.5zM1126 707q0 246 -168 405q-139 131 -376 131h-228v-430h259v-145h-359v-496h228q238 0 376 131q168 160 168 404z" />
<glyph unicode="&#xd1;" horiz-adv-x="1515" d="M981 1767l96 -20q-6 -82 -61 -135t-127 -53q-20 0 -41 3t-37 9t-27 11l-24 12q-14 7 -17 10q-2 0 -27.5 16t-48 24.5t-44.5 8.5q-70 0 -91 -86l-94 20q4 82 59.5 135.5t127.5 53.5q23 0 42 -3.5t36.5 -9.5t27.5 -11l25 -12q14 -7 16 -9t27.5 -17.5t48 -24t43.5 -8.5 q35 0 59.5 24.5t30.5 61.5zM1358 1413v-1413h-195l-815 1126q4 -190 4 -374v-752h-196v1413h209l800 -1110q-2 174 -2 361v749h195z" />
<glyph unicode="&#xd2;" horiz-adv-x="1609" d="M698 1817l181 -297h-148l-225 297h192zM1534 704.5q0 -329.5 -211 -529.5t-518 -200t-518 200t-211 529.5t211 529.5t518 200t518 -200t211 -529.5zM1331 709q0 252 -151.5 402.5t-374.5 150.5t-374.5 -150.5t-151.5 -402.5q0 -250 151.5 -401.5t374.5 -151.5 t374.5 150.5t151.5 402.5z" />
<glyph unicode="&#xd3;" horiz-adv-x="1609" d="M913 1817h191l-225 -297h-148zM1534 704.5q0 -329.5 -211 -529.5t-518 -200t-518 200t-211 529.5t211 529.5t518 200t518 -200t211 -529.5zM1331 709q0 252 -151.5 402.5t-374.5 150.5t-374.5 -150.5t-151.5 -402.5q0 -250 151.5 -401.5t374.5 -151.5t374.5 150.5 t151.5 402.5z" />
<glyph unicode="&#xd4;" horiz-adv-x="1609" d="M885 1817l188 -297h-143l-125 202l-125 -202h-143l188 297h160zM1534 704.5q0 -329.5 -211 -529.5t-518 -200t-518 200t-211 529.5t211 529.5t518 200t518 -200t211 -529.5zM1331 709q0 252 -151.5 402.5t-374.5 150.5t-374.5 -150.5t-151.5 -402.5q0 -250 151.5 -401.5 t374.5 -151.5t374.5 150.5t151.5 402.5z" />
<glyph unicode="&#xd5;" horiz-adv-x="1609" d="M1028 1767l96 -20q-4 -82 -60 -135t-128 -53q-20 0 -41 3t-37 9t-27 11l-24 12q-14 7 -16 10q-2 0 -28 16t-48.5 24.5t-44.5 8.5q-33 0 -57.5 -25.5t-30.5 -60.5l-97 20q6 82 61.5 135.5t127.5 53.5q20 0 40.5 -3.5t37 -9.5t26.5 -11l25 -12q14 -7 16 -9q2 0 27.5 -16.5 t48.5 -25t45 -8.5q33 0 57.5 25.5t30.5 60.5zM1534 704.5q0 -329.5 -211 -529.5t-518 -200t-518 200t-211 529.5t211 529.5t518 200t518 -200t211 -529.5zM1331 709q0 252 -151.5 402.5t-374.5 150.5t-374.5 -150.5t-151.5 -402.5q0 -250 151.5 -401.5t374.5 -151.5 t374.5 150.5t151.5 402.5z" />
<glyph unicode="&#xd6;" horiz-adv-x="1609" d="M1069 1661q0 -49 -30.5 -80t-75.5 -31t-77 31t-32 80q0 47 32 77.5t77 30.5t75.5 -30.5t30.5 -77.5zM756 1661q0 -49 -31 -80t-76 -31t-76.5 31t-31.5 80q0 47 31.5 77.5t76.5 30.5t76 -30.5t31 -77.5zM1534 704.5q0 -329.5 -211 -529.5t-518 -200t-518 200t-211 529.5 t211 529.5t518 200t518 -200t211 -529.5zM1331 709q0 252 -151.5 402.5t-374.5 150.5t-374.5 -150.5t-151.5 -402.5q0 -250 151.5 -401.5t374.5 -151.5t374.5 150.5t151.5 402.5z" />
<glyph unicode="&#xd7;" horiz-adv-x="1366" d="M793 705l409 -410l-106 -111l-412 412l-414 -412l-104 111l409 410l-409 409l104 111l414 -412l412 412l106 -111z" />
<glyph unicode="&#xd8;" horiz-adv-x="1609" d="M1534 705q0 -330 -210 -530t-519 -200q-270 0 -467 156l-160 -164l-98 99l158 161q-162 195 -162 478q0 330 211 529.5t518 199.5q272 0 469 -154l162 166l98 -98l-162 -166q162 -190 162 -477zM379 371l764 776q-143 115 -338 115q-223 0 -374.5 -150.5t-151.5 -402.5 q0 -199 100 -338zM1331 709q0 195 -96 335l-762 -776q145 -113 332 -112q223 0 374.5 150.5t151.5 402.5z" />
<glyph unicode="&#xd9;" horiz-adv-x="1366" d="M614 1817l183 -297h-150l-225 297h192zM1221 1413v-835q0 -150 -22.5 -250.5t-90.5 -180.5q-150 -172 -424 -172q-276 0 -424 172q-68 80 -91.5 180.5t-23.5 250.5v835h201v-817q0 -76 3 -120t17.5 -101.5t45.5 -95.5q92 -125 272 -125q176 0 272 125q31 39 45.5 96 t17.5 102t3 119v817h199z" />
<glyph unicode="&#xda;" horiz-adv-x="1366" d="M752 1817h192l-225 -297h-148zM1221 1413v-835q0 -150 -22.5 -250.5t-90.5 -180.5q-150 -172 -424 -172q-276 0 -424 172q-68 80 -91.5 180.5t-23.5 250.5v835h201v-817q0 -76 3 -120t17.5 -101.5t45.5 -95.5q92 -125 272 -125q176 0 272 125q31 39 45.5 96t17.5 102 t3 119v817h199z" />
<glyph unicode="&#xdb;" horiz-adv-x="1366" d="M764 1817l186 -297h-143l-123 202l-125 -202h-143l186 297h162zM1221 1413v-835q0 -150 -22.5 -250.5t-90.5 -180.5q-150 -172 -424 -172q-276 0 -424 172q-68 80 -91.5 180.5t-23.5 250.5v835h201v-817q0 -76 3 -120t17.5 -101.5t45.5 -95.5q92 -125 272 -125 q176 0 272 125q31 39 45.5 96t17.5 102t3 119v817h199z" />
<glyph unicode="&#xdc;" horiz-adv-x="1366" d="M948 1661q0 -49 -31.5 -80t-76.5 -31t-76 31t-31 80q0 47 31 77.5t76 30.5t76.5 -30.5t31.5 -77.5zM635 1661q0 -49 -32 -80t-77 -31t-75.5 31t-30.5 80t30.5 78.5t75.5 29.5t77 -30.5t32 -77.5zM1221 1413v-835q0 -150 -22.5 -250.5t-90.5 -180.5q-150 -172 -424 -172 q-276 0 -424 172q-68 80 -91.5 180.5t-23.5 250.5v835h201v-817q0 -76 3 -120t17.5 -101.5t45.5 -95.5q92 -125 272 -125q176 0 272 125q31 39 45.5 96t17.5 102t3 119v817h199z" />
<glyph unicode="&#xdd;" horiz-adv-x="1177" d="M657 1817h191l-225 -297h-148zM956 1413h224l-492 -821v-592h-199v592l-491 821h223l367 -649z" />
<glyph unicode="&#xde;" horiz-adv-x="1079" d="M1014 743q0 -186 -135 -303q-121 -100 -344 -100h-181v-340h-198v1413h198v-266h181q223 0 344 -100q135 -120 135 -304zM809 743q0 127 -88 187q-74 55 -205 55h-162v-485h162q127 0 205 55q88 63 88 188z" />
<glyph unicode="&#xdf;" horiz-adv-x="1144" d="M1075 424q0 -201 -136 -319.5t-364 -118.5l-116 12l12 154q39 -10 96 -11q127 0 219.5 74t92.5 217q0 147 -91.5 225t-242.5 78h-62v150h58q106 0 162.5 56t56.5 157q0 92 -64.5 142t-148.5 50q-111 0 -166 -78q-41 -66 -41 -206v-1006h-195v915q0 207 31 287 q39 102 123 160q102 72 264 72q170 0 273.5 -91.5t103.5 -224.5q0 -117 -62.5 -194.5t-127.5 -87.5v-5q131 -20 228 -129.5t97 -277.5z" />
<glyph unicode="&#xe0;" horiz-adv-x="1007" d="M412 1413l180 -297h-148l-225 297h193zM891 565v-565h-191l-2 123q-137 -145 -309 -146q-141 0 -238.5 82t-97.5 220q0 139 102.5 213.5t278.5 82.5l260 11v39q0 106 -65.5 163.5t-175.5 57.5q-158 0 -293 -84l-60 131q172 98 365 98q211 0 321 -110q105 -109 105 -316z M696 258v209l-227 -14q-221 -12 -221 -168q0 -72 53 -120t148 -48q153 0 247 141z" />
<glyph unicode="&#xe1;" horiz-adv-x="1007" d="M541 1413h190l-225 -297h-148zM891 565v-565h-191l-2 123q-137 -145 -309 -146q-141 0 -238.5 82t-97.5 220q0 139 102.5 213.5t278.5 82.5l260 11v39q0 106 -65.5 163.5t-175.5 57.5q-158 0 -293 -84l-60 131q172 98 365 98q211 0 321 -110q105 -109 105 -316zM696 258 v209l-227 -14q-221 -12 -221 -168q0 -72 53 -120t148 -48q153 0 247 141z" />
<glyph unicode="&#xe2;" horiz-adv-x="1007" d="M561 1413l187 -297h-144l-125 205l-123 -205h-143l186 297h162zM891 565v-565h-191l-2 123q-137 -145 -309 -146q-141 0 -238.5 82t-97.5 220q0 139 102.5 213.5t278.5 82.5l260 11v39q0 106 -65.5 163.5t-175.5 57.5q-158 0 -293 -84l-60 131q172 98 365 98 q211 0 321 -110q105 -109 105 -316zM696 258v209l-227 -14q-221 -12 -221 -168q0 -72 53 -120t148 -48q153 0 247 141z" />
<glyph unicode="&#xe3;" horiz-adv-x="1007" d="M733 1370l96 -20q-6 -82 -61 -135.5t-127 -53.5q-20 0 -40.5 3t-37 9.5t-26.5 11.5l-25 12q-14 7 -16 9t-22 14l-31 17q-11 6 -31.5 13t-36.5 7q-35 0 -58.5 -24.5t-31.5 -63.5l-97 21q6 82 61.5 136t127.5 54q27 0 53.5 -6t39.5 -12t34 -19l20 -10q2 -2 21 -12l30 -17 q12 -7 32 -13.5t36 -6.5q35 0 59.5 24.5t30.5 61.5zM891 565v-565h-191l-2 123q-137 -145 -309 -146q-141 0 -238.5 82t-97.5 220q0 139 102.5 213.5t278.5 82.5l260 11v39q0 106 -65.5 163.5t-175.5 57.5q-158 0 -293 -84l-60 131q172 98 365 98q211 0 321 -110 q105 -109 105 -316zM696 258v209l-227 -14q-221 -12 -221 -168q0 -72 53 -120t148 -48q153 0 247 141z" />
<glyph unicode="&#xe4;" horiz-adv-x="1007" d="M741 1264q0 -47 -31.5 -78t-76.5 -31t-76 31t-31 78q0 49 31 79.5t76 30.5t76.5 -30.5t31.5 -79.5zM428 1263.5q0 -49.5 -30.5 -79t-76 -29.5t-77 31t-31.5 78q0 49 31.5 79.5t77 30.5t76 -30.5t30.5 -80zM891 565v-565h-191l-2 123q-137 -145 -309 -146 q-141 0 -238.5 82t-97.5 220q0 139 102.5 213.5t278.5 82.5l260 11v39q0 106 -65.5 163.5t-175.5 57.5q-158 0 -293 -84l-60 131q172 98 365 98q211 0 321 -110q105 -109 105 -316zM696 258v209l-227 -14q-221 -12 -221 -168q0 -72 53 -120t148 -48q153 0 247 141z" />
<glyph unicode="&#xe5;" horiz-adv-x="1007" d="M682 1305q0 -84 -58.5 -139.5t-144.5 -55.5t-145.5 55.5t-59.5 139.5t59.5 139t145.5 55t144.5 -55t58.5 -139zM891 565v-565h-191l-2 123q-137 -145 -309 -146q-141 0 -238.5 82t-97.5 220q0 139 102.5 213.5t278.5 82.5l260 11v39q0 106 -65.5 163.5t-175.5 57.5 q-158 0 -293 -84l-60 131q172 98 365 98q211 0 321 -110q105 -109 105 -316zM584 1305q0 45 -30 75.5t-75 30.5q-47 0 -76.5 -30.5t-29.5 -75.5t29.5 -77t76.5 -32q45 0 75 32t30 77zM696 258v209l-227 -14q-221 -12 -221 -168q0 -72 53 -120t148 -48q153 0 247 141z" />
<glyph unicode="&#xe6;" horiz-adv-x="1703" d="M1642 526l-4 -86h-751q8 -143 93 -226t222 -83q51 0 99.5 9.5t86 26.5t62.5 30.5t49 29.5l25 17l82 -113l-13 -12q-12 -10 -28.5 -22.5t-42 -30t-59 -32t-75.5 -27.5t-96.5 -21.5t-113.5 -8.5q-244 0 -390 189q-4 6 -6 8q-82 -98 -171 -147.5t-220 -49.5 q-145 0 -241.5 82t-96.5 220q0 139 103.5 214.5t281.5 81.5l256 11v41q0 106 -65.5 162.5t-175.5 56.5q-158 0 -293 -84l-60 131q172 98 365 98q188 0 283 -88q25 -23 42 -45t21 -35l6 -10q123 178 367 178q203 0 330.5 -131t127.5 -334zM891 571h565q0 98 -72.5 188.5 t-205.5 90.5q-135 0 -209 -88.5t-78 -190.5zM725 281q-31 76 -31 186l-225 -14q-221 -10 -221 -168q0 -72 53 -120t145 -48q90 0 169 51.5t110 112.5z" />
<glyph unicode="&#xe7;" horiz-adv-x="972" d="M881 268l69 -143l-13 -12.5l-18.5 -17.5t-24.5 -20.5t-34 -22.5l-42 -22q-26 -13 -51.5 -21.5t-60 -15.5t-71.5 -11l-152 -279h-192l194 281q-178 25 -296.5 161t-118.5 340q0 227 147.5 366.5t349.5 139.5q117 0 211 -35.5t122 -59.5t44 -44l-70 -143q-119 119 -290 118 q-133 0 -224.5 -93t-91.5 -242q0 -154 88 -250.5t230 -96.5q172 0 284 113z" />
<glyph unicode="&#xe8;" horiz-adv-x="1083" d="M492 1413l182 -297h-150l-225 297h193zM1024 526l-6 -86h-750q8 -143 93 -226t221 -83q37 0 73.5 5t66.5 14.5t55.5 19.5t47.5 24l36 21q13 8 26.5 18.5t15.5 10.5l82 -113l-8 -8q-8 -8 -18 -15l-25 -21q-16 -13 -37 -25l-46 -24q-26 -13 -57.5 -23.5t-66.5 -18.5 t-79 -13.5t-91 -5.5q-217 0 -352 139.5t-135 370.5q0 225 142 364.5t351 139.5q203 0 332 -130t129 -335zM270 571h568q-2 98 -75 188.5t-206 90.5t-207 -87.5t-80 -191.5z" />
<glyph unicode="&#xe9;" horiz-adv-x="1083" d="M629 1413h192l-225 -297h-150zM1024 526l-6 -86h-750q8 -143 93 -226t221 -83q37 0 73.5 5t66.5 14.5t55.5 19.5t47.5 24l36 21q13 8 26.5 18.5t15.5 10.5l82 -113l-8 -8q-8 -8 -18 -15l-25 -21q-16 -13 -37 -25l-46 -24q-26 -13 -57.5 -23.5t-66.5 -18.5t-79 -13.5 t-91 -5.5q-217 0 -352 139.5t-135 370.5q0 225 142 364.5t351 139.5q203 0 332 -130t129 -335zM270 571h568q-2 98 -75 188.5t-206 90.5t-207 -87.5t-80 -191.5z" />
<glyph unicode="&#xea;" horiz-adv-x="1083" d="M641 1413l186 -297h-143l-123 205l-125 -205h-143l186 297h162zM1024 526l-6 -86h-750q8 -143 93 -226t221 -83q37 0 73.5 5t66.5 14.5t55.5 19.5t47.5 24l36 21q13 8 26.5 18.5t15.5 10.5l82 -113l-8 -8q-8 -8 -18 -15l-25 -21q-16 -13 -37 -25l-46 -24 q-26 -13 -57.5 -23.5t-66.5 -18.5t-79 -13.5t-91 -5.5q-217 0 -352 139.5t-135 370.5q0 225 142 364.5t351 139.5q203 0 332 -130t129 -335zM270 571h568q-2 98 -75 188.5t-206 90.5t-207 -87.5t-80 -191.5z" />
<glyph unicode="&#xeb;" horiz-adv-x="1083" d="M827 1264q0 -47 -31.5 -78t-76.5 -31t-76 31t-31 78q0 49 31 79.5t76 30.5t76.5 -30.5t31.5 -79.5zM514 1263.5q0 -49.5 -30.5 -79t-76 -29.5t-77 31t-31.5 78q0 49 31.5 79.5t77 30.5t76 -30.5t30.5 -80zM1024 526l-6 -86h-750q8 -143 93 -226t221 -83q37 0 73.5 5 t66.5 14.5t55.5 19.5t47.5 24l36 21q13 8 26.5 18.5t15.5 10.5l82 -113l-8 -8q-8 -8 -18 -15l-25 -21q-16 -13 -37 -25l-46 -24q-26 -13 -57.5 -23.5t-66.5 -18.5t-79 -13.5t-91 -5.5q-217 0 -352 139.5t-135 370.5q0 225 142 364.5t351 139.5q203 0 332 -130t129 -335z M270 571h568q-2 98 -75 188.5t-206 90.5t-207 -87.5t-80 -191.5z" />
<glyph unicode="&#xec;" horiz-adv-x="483" d="M158 1413l182 -297h-150l-225 297h193zM340 973v-973h-197v973h197z" />
<glyph unicode="&#xed;" horiz-adv-x="483" d="M326 1413h190l-225 -297h-148zM340 973v-973h-197v973h197z" />
<glyph unicode="&#xee;" horiz-adv-x="483" d="M322 1413l188 -297h-143l-125 205l-125 -205h-144l189 297h160zM340 973v-973h-197v973h197z" />
<glyph unicode="&#xef;" horiz-adv-x="483" d="M506 1264q0 -47 -32 -78t-77 -31t-75.5 29.5t-30.5 79t30.5 80t75.5 30.5t77 -30.5t32 -79.5zM193 1264q0 -47 -31 -78t-76 -31t-77 31t-32 78q0 49 32 79.5t77 30.5t76 -30.5t31 -79.5zM340 973v-973h-197v973h197z" />
<glyph unicode="&#xf0;" horiz-adv-x="1169" d="M1098 475q0 -215 -148.5 -356.5t-369.5 -141.5q-219 0 -364.5 141.5t-145.5 356.5q0 207 146 347.5t339 140.5q168 0 272 -97q-90 180 -280 348l-238 -147l-57 92l207 129q-111 86 -201 142l129 88q113 -68 215 -150l248 154l57 -95l-217 -135q123 -104 205 -223 q203 -281 203 -594zM899 479.5q0 143.5 -88 239.5t-227.5 96t-227.5 -96t-88 -239.5t88 -239t227.5 -95.5t227.5 95.5t88 239z" />
<glyph unicode="&#xf1;" horiz-adv-x="1107" d="M776 1370l96 -20q-6 -82 -61 -135.5t-127 -53.5q-23 0 -42 3t-36.5 9.5t-27.5 11.5l-25 12q-14 7 -16 9q-80 51 -119 51q-35 0 -59.5 -25.5t-30.5 -62.5l-97 21q6 82 61.5 136t127.5 54q27 0 52.5 -6t38.5 -12t32.5 -17.5t21.5 -11.5t27.5 -16.5t48.5 -24.5t45 -8 q70 0 90 86zM981 575v-575h-197v543q0 141 -41 213.5t-161 72.5q-129 0 -189.5 -94t-60.5 -246v-489h-197v973h197l-2 -154h6q41 76 117.5 124t179.5 48q193 0 270.5 -110.5t77.5 -305.5z" />
<glyph unicode="&#xf2;" horiz-adv-x="1169" d="M514 1413l180 -297h-147l-225 297h192zM1100 483.5q0 -223.5 -147.5 -365t-366.5 -141.5q-221 0 -368.5 141.5t-147.5 365t147.5 365.5t368.5 142q219 0 366.5 -142t147.5 -365.5zM901 489.5q0 147.5 -86 244.5t-229.5 97t-230.5 -97t-87 -244.5t87 -246t230.5 -98.5 t229.5 98.5t86 246z" />
<glyph unicode="&#xf3;" horiz-adv-x="1169" d="M657 1413h191l-225 -297h-148zM1100 483.5q0 -223.5 -147.5 -365t-366.5 -141.5q-221 0 -368.5 141.5t-147.5 365t147.5 365.5t368.5 142q219 0 366.5 -142t147.5 -365.5zM901 489.5q0 147.5 -86 244.5t-229.5 97t-230.5 -97t-87 -244.5t87 -246t230.5 -98.5t229.5 98.5 t86 246z" />
<glyph unicode="&#xf4;" horiz-adv-x="1169" d="M666 1413l186 -297h-143l-123 205l-125 -205h-144l187 297h162zM1100 483.5q0 -223.5 -147.5 -365t-366.5 -141.5q-221 0 -368.5 141.5t-147.5 365t147.5 365.5t368.5 142q219 0 366.5 -142t147.5 -365.5zM901 489.5q0 147.5 -86 244.5t-229.5 97t-230.5 -97t-87 -244.5 t87 -246t230.5 -98.5t229.5 98.5t86 246z" />
<glyph unicode="&#xf5;" horiz-adv-x="1169" d="M809 1370l96 -20q-6 -82 -61.5 -135.5t-126.5 -53.5q-23 0 -42.5 3t-35.5 9.5l-27.5 11.5t-24 12t-16.5 9q-2 2 -21 14l-31 17q-11 6 -31.5 13t-36.5 7q-35 0 -58.5 -24.5t-32.5 -63.5l-96 21q6 82 61.5 136t127.5 54q59 0 145 -47q2 0 27.5 -16.5t48 -24.5t45.5 -8 q35 0 59.5 24.5t30.5 61.5zM1100 483.5q0 -223.5 -147.5 -365t-366.5 -141.5q-221 0 -368.5 141.5t-147.5 365t147.5 365.5t368.5 142q219 0 366.5 -142t147.5 -365.5zM901 489.5q0 147.5 -86 244.5t-229.5 97t-230.5 -97t-87 -244.5t87 -246t230.5 -98.5t229.5 98.5t86 246 z" />
<glyph unicode="&#xf6;" horiz-adv-x="1169" d="M848 1263.5q0 -49.5 -31 -79t-76 -29.5t-76.5 31t-31.5 78q0 49 31.5 79.5t76.5 30.5t76 -30.5t31 -80zM537 1264q0 -47 -32 -78t-77 -31t-75.5 31t-30.5 78q0 49 30.5 79.5t75.5 30.5t77 -30.5t32 -79.5zM1100 483.5q0 -223.5 -147.5 -365t-366.5 -141.5 q-221 0 -368.5 141.5t-147.5 365t147.5 365.5t368.5 142q219 0 366.5 -142t147.5 -365.5zM901 489.5q0 147.5 -86 244.5t-229.5 97t-230.5 -97t-87 -244.5t87 -246t230.5 -98.5t229.5 98.5t86 246z" />
<glyph unicode="&#xf7;" horiz-adv-x="1366" d="M809 1044q0 -53 -37 -89.5t-88 -36.5q-53 0 -90 36.5t-37 89.5q0 51 38 88t89 37t88 -37t37 -88zM1219 782v-151h-1072v151h1072zM809 368.5q0 -53.5 -36 -89t-89 -35.5t-90 36.5t-37 88.5q0 53 37 90t90 37q51 0 88 -37t37 -90.5z" />
<glyph unicode="&#xf8;" horiz-adv-x="1169" d="M1026 1012l88 -86l-121 -121q106 -133 107 -322q0 -225 -146.5 -365.5t-367.5 -140.5q-186 0 -324 103l-121 -119l-86 84l119 121q-104 133 -104 317q0 223 147.5 365.5t368.5 142.5q180 0 319 -100zM313 303l467 465q-80 63 -194 63q-143 0 -230.5 -97t-87.5 -245 q0 -102 45 -186zM901 489q0 102 -43 183l-467 -463q80 -63 195 -64q143 0 229 98.5t86 245.5z" />
<glyph unicode="&#xf9;" horiz-adv-x="1097" d="M463 1413l180 -297h-147l-226 297h193zM963 975v-975h-191l-2 139q-41 -74 -121 -118t-180 -44q-182 0 -270 113q-72 96 -72 301v584h195v-576q0 -119 42 -188.5t160 -69.5q121 0 181.5 89t60.5 223v522h197z" />
<glyph unicode="&#xfa;" horiz-adv-x="1097" d="M625 1413h192l-225 -297h-150zM963 975v-975h-191l-2 139q-41 -74 -121 -118t-180 -44q-182 0 -270 113q-72 96 -72 301v584h195v-576q0 -119 42 -188.5t160 -69.5q121 0 181.5 89t60.5 223v522h197z" />
<glyph unicode="&#xfb;" horiz-adv-x="1097" d="M625 1413l188 -297h-143l-125 205l-125 -205h-144l189 297h160zM963 975v-975h-191l-2 139q-41 -74 -121 -118t-180 -44q-182 0 -270 113q-72 96 -72 301v584h195v-576q0 -119 42 -188.5t160 -69.5q121 0 181.5 89t60.5 223v522h197z" />
<glyph unicode="&#xfc;" horiz-adv-x="1097" d="M809 1264q0 -47 -32 -78t-77 -31t-75.5 31t-30.5 78q0 49 30.5 79.5t75.5 30.5t77 -30.5t32 -79.5zM496 1263.5q0 -49.5 -31 -79t-76 -29.5t-76.5 31t-31.5 78q0 49 31.5 79.5t76.5 30.5t76 -30.5t31 -80zM963 975v-975h-191l-2 139q-41 -74 -121 -118t-180 -44 q-182 0 -270 113q-72 96 -72 301v584h195v-576q0 -119 42 -188.5t160 -69.5q121 0 181.5 89t60.5 223v522h197z" />
<glyph unicode="&#xfd;" horiz-adv-x="980" d="M565 1413h193l-226 -297h-149zM782 975l203 -2l-469 -1143q-49 -123 -110.5 -174t-145.5 -51q-49 0 -95 9t-67 17l-22 9l39 159q53 -23 102 -22q23 0 33 2t28.5 11t35 33.5t30.5 67.5l47 129l-389 955l205 -2l289 -756z" />
<glyph unicode="&#xfe;" horiz-adv-x="1222" d="M1153 487q0 -221 -130 -365.5t-343 -144.5q-221 0 -336 175h-4v-533h-195v1794h195v-592h4q119 170 340 170q211 0 340 -142.5t129 -361.5zM952 489.5q0 149.5 -83 245.5t-226 96t-227 -96t-84 -245.5t84 -247t227 -97.5t226 97.5t83 247z" />
<glyph unicode="&#xff;" horiz-adv-x="980" d="M760 1272q0 -49 -32 -80t-77 -31t-75.5 31t-30.5 80t30.5 79.5t75.5 30.5t77 -30.5t32 -79.5zM446 1272q0 -47 -30.5 -79t-75.5 -32t-77 31t-32 80t32 79.5t77 30.5t75.5 -30.5t30.5 -79.5zM782 975l203 -2l-469 -1143q-49 -123 -110.5 -174t-145.5 -51q-49 0 -95 9 t-67 17l-22 9l39 159q53 -23 102 -22q23 0 33 2t28.5 11t35 33.5t30.5 67.5l47 129l-389 955l205 -2l289 -756z" />
<glyph unicode="&#x152;" horiz-adv-x="2031" d="M1944 168v-168h-775v76q-152 -100 -372 -101q-303 0 -512 200t-209 529.5t209 529.5t512 200q211 0 370 -97v76h760v-166h-569v-422h534v-166h-534v-491h586zM1159 281v856q-143 125 -362 125t-368.5 -150.5t-149.5 -402.5q0 -250 150.5 -401.5t367.5 -151.5 q219 0 362 125z" />
<glyph unicode="&#x153;" horiz-adv-x="1906" d="M1845 526l-4 -86h-751q8 -143 92 -226t221 -83q43 0 86 8t73.5 18.5t62.5 26t47.5 24.5t33.5 21l18 15l82 -113l-8 -8l-17 -16.5t-25.5 -20.5t-36 -23.5t-45 -24.5t-57.5 -23.5t-66.5 -18.5t-79 -13.5t-91.5 -5.5q-266 0 -389 216q-129 -215 -405 -216 q-221 0 -368.5 141.5t-147.5 365t147.5 365.5t368.5 142q137 0 241.5 -58.5t165.5 -158.5q135 217 393 217q203 0 331 -130t128 -335zM1094 571h565q-2 98 -74 188.5t-205 90.5q-135 0 -208.5 -88.5t-77.5 -190.5zM901 489.5q0 147.5 -86 244.5t-229.5 97t-230.5 -97 t-87 -244.5t87 -246t230.5 -98.5t229.5 98.5t86 246z" />
<glyph unicode="&#x178;" horiz-adv-x="1177" d="M854 1675q0 -49 -31.5 -79.5t-77 -30.5t-76 30.5t-30.5 79.5t30.5 80t76 31t77 -31t31.5 -80zM539 1675q0 -49 -31 -79.5t-76 -30.5t-76.5 30.5t-31.5 79.5t31.5 80t76.5 31t76 -31t31 -80zM956 1413h224l-492 -821v-592h-199v592l-491 821h223l367 -649z" />
<glyph unicode="&#x2c6;" horiz-adv-x="686" d="M424 1413l186 -297h-143l-125 205l-123 -205h-143l186 297h162z" />
<glyph unicode="&#x2dc;" horiz-adv-x="686" d="M567 1370l97 -20q-6 -82 -61.5 -135.5t-127.5 -53.5q-63 0 -145 45q-2 2 -22 14l-30 17q-11 6 -32 13t-37 7q-35 0 -59.5 -25.5t-30.5 -62.5l-96 21q6 82 61 136t127 54q27 0 52.5 -6t38.5 -12t32.5 -16.5t21.5 -12.5q2 0 28 -16.5t48.5 -24.5t44.5 -8q70 0 90 86z" />
<glyph unicode="&#x2000;" horiz-adv-x="939" />
<glyph unicode="&#x2001;" horiz-adv-x="1878" />
<glyph unicode="&#x2002;" horiz-adv-x="939" />
<glyph unicode="&#x2003;" horiz-adv-x="1878" />
<glyph unicode="&#x2004;" horiz-adv-x="626" />
<glyph unicode="&#x2005;" horiz-adv-x="469" />
<glyph unicode="&#x2006;" horiz-adv-x="313" />
<glyph unicode="&#x2007;" horiz-adv-x="313" />
<glyph unicode="&#x2008;" horiz-adv-x="234" />
<glyph unicode="&#x2009;" horiz-adv-x="375" />
<glyph unicode="&#x200a;" horiz-adv-x="104" />
<glyph unicode="&#x2010;" horiz-adv-x="598" d="M547 643v-164h-496v164h496z" />
<glyph unicode="&#x2011;" horiz-adv-x="598" d="M547 643v-164h-496v164h496z" />
<glyph unicode="&#x2012;" horiz-adv-x="598" d="M547 643v-164h-496v164h496z" />
<glyph unicode="&#x2013;" horiz-adv-x="946" d="M946 637v-154h-946v154h946z" />
<glyph unicode="&#x2014;" horiz-adv-x="1740" d="M1729 637v-154h-1717v154h1717z" />
<glyph unicode="&#x2018;" horiz-adv-x="638" d="M340 1413h156l-138 -438h-200z" />
<glyph unicode="&#x2019;" horiz-adv-x="638" d="M281 1413h200l-182 -438h-156z" />
<glyph unicode="&#x201a;" horiz-adv-x="638" d="M281 199h200l-182 -437h-156z" />
<glyph unicode="&#x201c;" horiz-adv-x="1001" d="M705 1413h149l-137 -438h-195zM342 1413h152l-138 -438h-194z" />
<glyph unicode="&#x201d;" horiz-adv-x="1001" d="M645 1413h195l-183 -438h-151zM285 1413h194l-182 -438h-152z" />
<glyph unicode="&#x201e;" horiz-adv-x="1001" d="M645 199h195l-183 -437h-151zM285 199h194l-182 -437h-152z" />
<glyph unicode="&#x2022;" horiz-adv-x="1107" d="M862 747.5q0 -124.5 -91 -217t-216 -92.5t-217 92.5t-92 217t92 217t217 92.5t216 -92.5t91 -217z" />
<glyph unicode="&#x2026;" horiz-adv-x="1933" d="M1722 108.5q0 -55.5 -37.5 -90t-93.5 -34.5q-57 0 -94 34.5t-37 90t37 89t94 33.5q55 0 93 -33.5t38 -89zM1098 108.5q0 -55.5 -37 -90t-94.5 -34.5t-94 34.5t-36.5 90t36.5 89t94 33.5t94.5 -33.5t37 -89zM473 108.5q0 -55.5 -37 -90t-94 -34.5t-94 34.5t-37 90t37 89 t94 33.5t94 -33.5t37 -89z" />
<glyph unicode="&#x202f;" horiz-adv-x="375" />
<glyph unicode="&#x2039;" horiz-adv-x="649" d="M283 487l243 -327l-108 -80l-305 407l305 406l106 -80z" />
<glyph unicode="&#x203a;" horiz-adv-x="649" d="M233 893l304 -406l-304 -407l-108 82l242 325l-244 328z" />
<glyph unicode="&#x205f;" horiz-adv-x="469" />
<glyph unicode="&#x20ac;" d="M1044 295l82 -131l-8 -10q-6 -10 -12 -17.5t-19.5 -22t-26.5 -25.5t-33.5 -26.5t-42 -26.5t-50.5 -23.5t-58.5 -19.5t-67.5 -12.5t-77 -5.5q-205 0 -343 141.5t-179 393.5h-137v133l123 2q-2 39 -2 72v69h-121v134h139q35 223 176 368q139 145 348 146q201 0 361 -140 l-68 -153q-104 133 -289 133q-123 0 -210 -88t-113 -266h510v-134h-529v-69l2 -74h527v-133h-510q20 -172 107 -267.5t218 -95.5q166 0 297 142z" />
<glyph unicode="&#x2122;" horiz-adv-x="1740" d="M1563 1413l63 -815h-133l-45 641h-4l-211 -641h-105l-208 641h-7l-43 -641h-133l64 815h180l199 -612h4l196 612h183zM692 1413v-115h-229v-700h-133v700h-230v115h592z" />
<glyph unicode="&#xe000;" horiz-adv-x="975" d="M0 975h975v-975h-975v975z" />
<glyph unicode="&#xfb01;" horiz-adv-x="1062" d="M950 1292.5q0 -53.5 -35.5 -87.5t-93.5 -34q-55 0 -91 34t-36 87.5t36 87t91 33.5q57 0 93 -33.5t36 -87zM920 973v-973h-195v973h195zM633 1413l-15 -145q-47 18 -102 18q-45 0 -74.5 -17.5t-44 -38t-21.5 -63.5t-8 -64.5t-1 -72.5v-59h231v-158h-231v-813h-195v813 h-139v158h139v98q0 186 66 260q94 106 241 107q37 0 75 -5.5t58 -11.5z" />
<glyph unicode="&#xfb02;" horiz-adv-x="1067" d="M922 1413v-1413h-197v1413h197zM633 1413l-15 -145q-41 18 -102 18q-88 0 -118.5 -54t-30.5 -153v-108h231v-158h-231v-813h-195v813h-139v158h139v106q0 154 61 246q82 113 246 113q43 0 81 -5.5t54 -11.5z" />
<glyph unicode="&#xfb03;" horiz-adv-x="1605" d="M1200 1413l-12 -145q-55 18 -111 18q-88 0 -118.5 -54t-30.5 -153v-108h231v-158h-231v-813h-195v813h-366v-813h-195v813h-139v158h139v98q0 178 66 260q86 106 233 107q49 0 91 -5.5t61 -11.5l16 -6l-12 -145q-55 18 -111 18q-88 0 -118.5 -54t-30.5 -153v-108h266v98 q0 178 66 260q86 106 233 107q49 0 91 -5.5t61 -11.5zM1462 973v-973h-196v973h196zM1491 1292.5q0 -53.5 -36 -87.5t-91 -34q-57 0 -93 34t-36 87.5t36 87t93 33.5q55 0 91 -33.5t36 -87z" />
<glyph unicode="&#xfb04;" horiz-adv-x="1607" d="M1200 1413l-12 -145q-55 18 -111 18q-88 0 -118.5 -54t-30.5 -153v-108h231v-158h-231v-813h-195v813h-366v-813h-195v813h-139v158h139v98q0 178 66 260q86 106 233 107q49 0 91 -5.5t61 -11.5l16 -6l-12 -145q-55 18 -111 18q-88 0 -118.5 -54t-30.5 -153v-108h266v98 q0 178 66 260q86 106 233 107q49 0 91 -5.5t61 -11.5zM1462 1413v-1413h-194v1413h194z" />
</font>
</defs>
</svg>
