<?xml version="1.0" standalone="no"?>
<!DOCTYPE svg PUBLIC "-//W3C//DTD SVG 1.1//EN" "http://www.w3.org/Graphics/SVG/1.1/DTD/svg11.dtd" >
<svg xmlns="http://www.w3.org/2000/svg">
<metadata>
This is a custom SVG webfont generated by Fontspring.
</metadata>
<defs>
<font id="GibsonLight" horiz-adv-x="1146" >
<font-face units-per-em="2048" ascent="1638" descent="-410" />
<missing-glyph horiz-adv-x="409" />
<glyph unicode=" "  horiz-adv-x="409" />
<glyph unicode="&#x09;" horiz-adv-x="409" />
<glyph unicode="&#xa0;" horiz-adv-x="409" />
<glyph unicode="!" horiz-adv-x="583" d="M236 1413h112l-10 -1075h-92zM389 76q0 -41 -27.5 -68.5t-70.5 -27.5q-41 0 -68.5 27.5t-27.5 68.5q0 43 27.5 70.5t68.5 27.5q43 0 70.5 -27.5t27.5 -70.5z" />
<glyph unicode="&#x22;" horiz-adv-x="819" d="M483 1413h111l-12 -389h-88zM225 1413h111l-10 -389h-90z" />
<glyph unicode="#" d="M1075 1004v-99h-248l-47 -321h234v-99h-246l-61 -430h-93l62 430h-287l-61 -430h-92l61 430h-225v99h237l47 321h-223v99h238l61 430h92l-61 -430h285l63 430h92l-63 -430h235zM688 584l47 321h-286l-48 -321h287z" />
<glyph unicode="$" d="M1014 352q0 -150 -109.5 -253t-261.5 -119v-175h-96v172q-139 2 -250 77t-164 206l96 51q43 -111 128 -173t190 -62v614l-86 41q-125 59 -195.5 139t-70.5 215q0 143 99 237.5t253 111.5v159h96v-159q217 -18 324 -205l-82 -62q-80 158 -242 174v-573l115 -55 q119 -59 187.5 -140.5t68.5 -220.5zM506 829l41 -20v532q-113 -12 -179.5 -80.5t-66.5 -175.5q0 -68 35 -121t73 -78.5t97 -56.5zM901 342q0 106 -50 168.5t-144 107.5l-64 31v-573q98 4 178 79.5t80 186.5z" />
<glyph unicode="%" horiz-adv-x="1478" d="M717 1095.5q0 -141.5 -89 -232.5t-224.5 -91t-223.5 91t-88 232.5t88 231.5t223.5 90t224.5 -90t89 -231.5zM1137 1444l75 -47l-870 -1444l-76 47zM1386 301q0 -141 -88 -231t-223 -90t-224 90t-89 231t89 232.5t224 91.5t223 -91.5t88 -232.5zM618 1095.5 q0 104.5 -59 170t-156 65.5q-94 0 -154.5 -66.5t-60.5 -168.5q0 -104 59.5 -170t156 -66t155.5 65.5t59 170zM1290 301q0 104 -59.5 170t-155.5 66t-155.5 -65.5t-59.5 -170t59.5 -170t155.5 -65.5q94 0 154.5 66.5t60.5 168.5z" />
<glyph unicode="&#x26;" horiz-adv-x="1331" d="M1311 10v-10h-140l-198 236q-111 -125 -221.5 -193t-270.5 -68q-178 0 -288.5 104.5t-110.5 278.5q0 84 28.5 153t91 126t119 94t150.5 88l-44 53q-36 43 -49 63.5t-36 60.5t-32 79t-9 82q0 119 85 198t228 79q141 0 224.5 -79t83.5 -198q0 -190 -293 -358l344 -406 q37 43 93 141.5t81 161.5l102 -30q-18 -47 -87.5 -167t-123.5 -182zM809 1157q0 90 -53.5 137t-141.5 47t-144 -52t-56 -142q0 -35 9 -67.5t31 -66.5l32 -51q11 -17 43 -53.5t34 -38.5l31 19q45 27 70.5 45t65.5 53t59.5 78t19.5 92zM905 311l-368 437l-72 -41 q-80 -47 -128 -83t-93 -104.5t-45 -150.5q0 -131 87 -214t220 -83q121 0 229.5 74.5t169.5 164.5z" />
<glyph unicode="'" horiz-adv-x="561" d="M225 1413h111l-10 -389h-90z" />
<glyph unicode="(" horiz-adv-x="512" d="M461 -225l-72 -41q-287 430 -287 911t287 911l72 -40q-90 -137 -168 -381t-78 -490t78 -489.5t168 -380.5z" />
<glyph unicode=")" horiz-adv-x="512" d="M410 645q0 -481 -287 -911l-72 41q90 137 168 380.5t78 489.5t-78 489.5t-168 381.5l72 40q287 -430 287 -911z" />
<glyph unicode="*" horiz-adv-x="1075" d="M864 1260l37 -93l-307 -98l199 -266l-82 -55l-174 280l-175 -280l-81 55l200 266l-307 98l35 93l293 -119l-17 303h103l-15 -303z" />
<glyph unicode="+" horiz-adv-x="1320" d="M1178 752v-93h-471v-471h-93v471h-471v93h471v471h93v-471h471z" />
<glyph unicode="," horiz-adv-x="583" d="M287 164h123l-164 -451h-82z" />
<glyph unicode="-" horiz-adv-x="534" d="M492 621v-103h-449v103h449z" />
<glyph unicode="." horiz-adv-x="583" d="M389 76q0 -41 -27.5 -68.5t-70.5 -27.5q-41 0 -68.5 27.5t-27.5 68.5q0 43 27.5 70.5t68.5 27.5q43 0 70.5 -27.5t27.5 -70.5z" />
<glyph unicode="/" horiz-adv-x="1034" d="M901 1612l88 -43l-856 -1751l-88 43z" />
<glyph unicode="0" d="M1085 705q0 -190 -51 -350t-171 -269t-290 -109t-289.5 109t-171 268.5t-51.5 350.5q0 141 31 268t91.5 232.5t160.5 167t229 61.5q170 0 290 -108.5t171 -268t51 -352.5zM967 708.5q0 284.5 -102.5 456.5t-291 172t-292 -173t-103.5 -455.5t103.5 -455.5t292 -173 t291 172t102.5 456.5z" />
<glyph unicode="1" horiz-adv-x="849" d="M522 1413v-1413h-108v1321h-291v92h399z" />
<glyph unicode="2" d="M1055 102v-102h-901l-21 82l512 502q63 63 106.5 113.5t88.5 141.5t45 175q0 141 -90 231t-242 90q-135 0 -220 -76.5t-128 -173.5l-82 52q23 51 54.5 95t82.5 93t127 79t166 30q195 0 319.5 -115t124.5 -301q0 -51 -11 -102.5t-36.5 -98.5t-47 -83t-58.5 -79l-54 -62 q-17 -19 -54.5 -54t-39.5 -37l-409 -400h768z" />
<glyph unicode="3" d="M1014 383q0 -178 -135.5 -290.5t-346.5 -112.5q-229 0 -385 194l-34 51l82 66q6 -8 15 -22.5t43 -51.5t70.5 -65.5t95 -51t118.5 -22.5q166 0 265 80t99 225t-96 224t-242 79h-92v107h92q133 0 215 71.5t82 200.5q0 125 -89 197.5t-218 72.5q-111 0 -186.5 -46 t-151.5 -132l-72 62q80 100 176.5 157.5t243.5 57.5q170 0 290 -98.5t120 -260.5q0 -80 -25.5 -142.5t-67.5 -99t-79 -57t-74 -28.5v-7q100 -14 193.5 -105t93.5 -253z" />
<glyph unicode="4" d="M1106 430v-102h-217v-328h-109v328h-729v82l737 1013h101v-993h217zM174 430h606v830z" />
<glyph unicode="5" d="M1014 440q0 -213 -144.5 -339t-347.5 -126q-170 0 -278.5 77t-151.5 163l82 61q43 -84 136 -142t222 -58q150 0 259.5 95t109.5 269t-108.5 268.5t-260.5 94.5q-170 0 -245 -76l-72 41l133 645h635v-98h-553l-98 -455q82 41 211 41q188 0 329.5 -125t141.5 -336z" />
<glyph unicode="6" d="M1055 451q0 -205 -124 -340.5t-327 -135.5q-285 0 -409 250q-82 164 -82 451q0 346 149 563q133 195 387 195q70 0 134.5 -15.5t105.5 -37t71.5 -44t43.5 -39.5l14 -14l-62 -76q-141 133 -311 133q-193 0 -303 -163q-123 -186 -123 -553q113 262 399 262 q176 0 306.5 -121.5t130.5 -314.5zM942 432.5q0 149.5 -88 254t-250 104.5q-164 0 -254 -104.5t-90 -254t90 -254t254 -104.5q162 0 250 104.5t88 254z" />
<glyph unicode="7" d="M1055 1413l30 -61l-716 -1352h-113l696 1315h-829v98h932z" />
<glyph unicode="8" d="M1024 383q0 -188 -124 -297t-326.5 -109t-326.5 109t-124 297q0 135 73.5 230.5t196.5 134.5v4q-43 18 -73.5 37.5t-69.5 56.5t-60.5 96t-21.5 137q0 160 119 257.5t286.5 97.5t285.5 -97.5t118 -257.5q0 -78 -21.5 -137t-60.5 -96t-69.5 -56.5t-73.5 -37.5v-4 q123 -39 197.5 -134.5t74.5 -230.5zM864 1067q0 127 -82 197.5t-209 70.5t-209.5 -70.5t-82.5 -197.5t82.5 -197.5t209.5 -70.5t209 70.5t82 197.5zM911 389q0 143 -94 227t-243.5 84t-243.5 -84t-94 -227q0 -141 97 -228t240.5 -87t240.5 87t97 228z" />
<glyph unicode="9" d="M1034 737q0 -352 -149 -569q-135 -193 -379 -193q-242 0 -389 148l61 76q137 -127 328 -127q104 0 173 37.5t124 119.5q123 186 123 559q-111 -266 -400 -266q-176 0 -305 122t-129 314q0 205 124 340.5t327 135.5q285 0 409 -250q82 -164 82 -447zM885 978.5 q0 149.5 -89 254t-253 104.5t-251 -104.5t-87 -254t87 -253.5t251 -104t253 104t89 253.5z" />
<glyph unicode=":" horiz-adv-x="583" d="M389 864q0 -41 -27.5 -68.5t-70.5 -27.5q-41 0 -68.5 27.5t-27.5 68.5q0 43 27.5 71t68.5 28q43 0 70.5 -28t27.5 -71zM389 76q0 -41 -27.5 -68.5t-70.5 -27.5q-41 0 -68.5 27.5t-27.5 68.5q0 43 27.5 70.5t68.5 27.5q43 0 70.5 -27.5t27.5 -70.5z" />
<glyph unicode=";" horiz-adv-x="583" d="M389 864q0 -41 -27.5 -68.5t-70.5 -27.5q-41 0 -68.5 27.5t-27.5 68.5q0 43 27.5 71t68.5 28q43 0 70.5 -28t27.5 -71zM287 164h123l-164 -451h-82z" />
<glyph unicode="&#x3c;" horiz-adv-x="1320" d="M1178 276v-102l-1035 481v103l1035 481v-102l-932 -430z" />
<glyph unicode="=" horiz-adv-x="1320" d="M1178 911v-92h-1035v92h1035zM1178 594v-92h-1035v92h1035z" />
<glyph unicode="&#x3e;" horiz-adv-x="1320" d="M1178 758v-103l-1035 -481v102l932 431l-932 430v102z" />
<glyph unicode="?" horiz-adv-x="952" d="M840 1116q0 -59 -12.5 -106t-45 -92.5t-53 -68t-70.5 -71.5l-18 -18q-49 -49 -70.5 -75t-39 -70t-19.5 -103l-6 -174h-92l-4 154q-2 86 25.5 155.5t53 98t74.5 73.5q96 90 127 144q37 68 37 143q0 104 -70.5 166.5t-181.5 62.5q-100 0 -164.5 -49t-91.5 -119l-82 52 q14 33 37 64.5t62.5 68.5t104.5 59.5t144 22.5q162 0 258.5 -94.5t96.5 -223.5zM557 76q0 -41 -27.5 -68.5t-68.5 -27.5q-43 0 -71 27.5t-28 68.5q0 43 28 70.5t71 27.5q41 0 68.5 -27.5t27.5 -70.5z" />
<glyph unicode="@" horiz-adv-x="1638" d="M1552 594q0 -248 -150.5 -421t-324.5 -173q-147 0 -166 133q-133 -133 -276 -133q-33 0 -68 13.5t-73.5 44t-64.5 95t-26 154.5q0 131 60.5 265.5t173.5 228.5t244 94q162 0 233 -100l6 -13l27 72h106l-198 -578q-25 -74 -25 -110q0 -70 76 -70q123 0 235.5 146.5 t112.5 351.5q0 219 -165 370.5t-429 151.5q-274 0 -473 -196.5t-199 -489.5q0 -295 172 -475t439 -180q156 0 299 45t202.5 81t81.5 58l43 -70q-12 -12 -34.5 -29.5t-80 -51t-125 -59t-171 -46t-215.5 -20.5q-307 0 -510 204.5t-203 542.5q0 336 232.5 557t541.5 221 q299 0 495.5 -176t196.5 -438zM981 381l104 305q-2 4 -5 12.5t-19.5 29t-38 35.5t-62 27.5t-92.5 12.5q-102 0 -187 -82t-127 -191.5t-42 -212.5q0 -127 50 -174t114 -47q70 0 161 65.5t144 219.5z" />
<glyph unicode="A" horiz-adv-x="1290" d="M676 1417l604 -1417h-129l-174 424h-674l-176 -424h-117l604 1417h62zM344 526h590l-295 723z" />
<glyph unicode="B" horiz-adv-x="1150" d="M1055 399q0 -186 -150 -307q-111 -92 -352 -92h-379v1413h311q231 0 328 -72q133 -100 133 -282q0 -106 -63.5 -193.5t-159.5 -115.5q154 -25 243 -116.5t89 -234.5zM936 393q0 145 -123 232q-88 59 -297 59h-231v-584h231q213 0 297 58q123 85 123 235zM834 1055 q0 156 -113 215q-78 43 -225 43h-211v-531h190q176 0 246 52q113 80 113 221z" />
<glyph unicode="C" horiz-adv-x="1382" d="M1249 266l72 -71q-199 -219 -522 -220q-309 0 -511 204t-202 526q0 319 205 524t508 205q307 0 512 -205l-72 -82q-59 76 -178 131t-262 55q-262 0 -428 -174t-166 -450.5t166 -452.5t428 -176q280 0 450 186z" />
<glyph unicode="D" horiz-adv-x="1382" d="M1294 707q0 -297 -215 -512q-80 -80 -213 -137.5t-303 -57.5h-389v1413h389q170 0 303 -57.5t213 -136.5q215 -215 215 -512zM1180 707q0 272 -197 454q-162 152 -430 152h-268v-1213h268q270 0 430 150q197 183 197 457z" />
<glyph unicode="E" horiz-adv-x="1054" d="M956 100v-100h-782v1413h768v-100h-657v-512h620v-101h-620v-600h671z" />
<glyph unicode="F" horiz-adv-x="972" d="M891 1413v-100h-606v-555h569v-101h-569v-657h-111v1413h717z" />
<glyph unicode="G" horiz-adv-x="1536" d="M1382 719v-524q-6 -8 -20 -23.5t-66.5 -53.5t-114 -66.5t-165 -52.5t-217.5 -24q-307 0 -510 208t-203 524q0 313 201.5 520t505.5 207q350 0 563 -246l-76 -82q-190 227 -487 227q-254 0 -421 -171t-167 -455.5t172 -455.5t432 -171q94 0 177 16.5t133 39t87 45t51 38.5 l17 17v382h-434v101h542z" />
<glyph unicode="H" horiz-adv-x="1443" d="M1270 1413v-1413h-111v707h-874v-707h-111v1413h111v-606h874v606h111z" />
<glyph unicode="I" horiz-adv-x="458" d="M285 1413v-1413h-111v1413h111z" />
<glyph unicode="J" horiz-adv-x="458" d="M285 1413v-1423q0 -199 -49 -287q-68 -123 -205 -123l-119 21v92q37 -16 108 -17q51 0 84 24t47.5 72t18.5 93t4 115v1433h111z" />
<glyph unicode="K" horiz-adv-x="1116" d="M526 860l611 -860h-140l-546 788l-166 -163v-625h-111v1413h111v-661l667 661h144z" />
<glyph unicode="L" horiz-adv-x="808" d="M788 100v-100h-614v1413h111v-1313h503z" />
<glyph unicode="M" horiz-adv-x="1720" d="M1475 1413l143 -1413h-111l-121 1227l-522 -1252h-10l-524 1254l-117 -1229h-111l144 1413h127l485 -1206l488 1206h129z" />
<glyph unicode="N" horiz-adv-x="1501" d="M1327 1413v-1413h-100l-942 1239v-1239h-111v1413h111l932 -1218v1218h110z" />
<glyph unicode="O" horiz-adv-x="1607" d="M1520 704.5q0 -327.5 -209 -528.5t-508 -201t-508 201t-209 528.5t209 528.5t508 201t508 -201t209 -528.5zM1405 707q0 287 -175 457.5t-427 170.5t-426 -171t-174 -457q0 -285 175 -456t425 -171q252 0 427 171t175 456z" />
<glyph unicode="P" horiz-adv-x="1024" d="M952 1036q0 -166 -129 -278q-113 -98 -325 -99h-213v-659h-111v1413h324q213 0 325 -98q129 -113 129 -279zM836 1036.5q0 139.5 -99 212.5q-88 63 -235 64h-217v-553h217q147 0 235 63q99 74 99 213.5z" />
<glyph unicode="Q" horiz-adv-x="1607" d="M1520 705q0 -334 -222 -541l160 -184l-80 -70l-161 188q-182 -123 -414 -123q-299 0 -508 201t-209 528.5t209 528.5t508 201t508 -200.5t209 -528.5zM1405 707q0 287 -175 457.5t-427 170.5t-426 -171t-174 -457q0 -285 175 -456t425 -171q193 0 342 100l-135 158l80 70 l137 -160q178 174 178 459z" />
<glyph unicode="R" horiz-adv-x="1024" d="M594 659l430 -659h-141l-418 655h-180v-655h-111v1413h328q201 0 320.5 -101.5t119.5 -277.5q0 -164 -99 -258t-249 -117zM825 1034q0 145 -104 219q-51 39 -113.5 49.5t-167.5 10.5h-155v-557h155q70 0 109 2t88 15t84 40q104 78 104 221z" />
<glyph unicode="S" horiz-adv-x="1069" d="M977 369q0 -166 -126 -280t-327 -114q-96 0 -177 30t-132 77t-78.5 82t-44.5 65l86 62q47 -86 139.5 -152.5t217.5 -66.5q141 0 235 80.5t94 216.5q0 63 -27.5 115.5t-81 87t-82 49t-79.5 34.5q-160 63 -232 103q-205 115 -204 327q0 152 117.5 250.5t297.5 98.5 q82 0 154 -25t117 -61.5t67.5 -60t30.5 -38.5l-78 -67q-121 154 -299 153q-129 0 -212 -64.5t-83 -180.5q0 -106 57.5 -166t153.5 -101q272 -117 291 -127q205 -114 205 -327z" />
<glyph unicode="T" horiz-adv-x="991" d="M971 1413v-100h-420v-1313h-111v1313h-420v100h951z" />
<glyph unicode="U" horiz-adv-x="1331" d="M1167 1413v-844q0 -147 -18.5 -243.5t-81.5 -175.5q-139 -174 -401.5 -174.5t-401.5 174.5q-63 80 -81.5 176t-18.5 243v844h110v-854q0 -233 72 -332q111 -150 319.5 -149.5t319.5 149.5q72 98 72 332v854h110z" />
<glyph unicode="V" horiz-adv-x="1136" d="M1012 1413h114l-516 -1415h-86l-514 1415h121l440 -1229z" />
<glyph unicode="W" horiz-adv-x="1857" d="M1720 1413h117l-414 -1415h-102l-393 1255l-391 -1255h-103l-414 1415h117l355 -1225l378 1225h117l379 -1225z" />
<glyph unicode="X" horiz-adv-x="1089" d="M614 727l465 -727h-133l-401 649l-402 -649h-133l465 727l-430 686h129l371 -610l370 610h129z" />
<glyph unicode="Y" horiz-adv-x="1116" d="M977 1413h129l-494 -809v-604h-110v604l-492 809h127l420 -706z" />
<glyph unicode="Z" horiz-adv-x="1095" d="M1044 100v-100h-983v92l824 1221h-801v100h950v-74l-839 -1239h849z" />
<glyph unicode="[" horiz-adv-x="512" d="M430 -184v-88h-328v1828h328v-88h-221v-1652h221z" />
<glyph unicode="\" horiz-adv-x="1024" d="M127 1628l856 -1608l-88 -45l-854 1608z" />
<glyph unicode="]" horiz-adv-x="512" d="M430 1556v-1828h-328v88h220v1652h-220v88h328z" />
<glyph unicode="^" horiz-adv-x="1320" d="M711 1413l368 -799h-102l-318 697l-317 -697h-102l368 799h103z" />
<glyph unicode="_" horiz-adv-x="1024" d="M1024 49v-100h-1024v100h1024z" />
<glyph unicode="`" horiz-adv-x="573" d="M256 1413l195 -297h-93l-235 297h133z" />
<glyph unicode="a" horiz-adv-x="942" d="M809 563v-563h-109v133q-131 -154 -321 -153q-137 0 -227.5 81.5t-90.5 204.5q0 127 96.5 203t282.5 84l260 10v51q0 125 -74.5 192.5t-191.5 67.5q-94 0 -173 -29.5t-107 -51.5l-41 77q145 96 317 97q186 0 287 -107q92 -102 92 -297zM700 246v235l-270 -16 q-262 -14 -262 -199q0 -82 60.5 -138t170.5 -56q104 0 181 53t120 121z" />
<glyph unicode="b" horiz-adv-x="1177" d="M1096 475q0 -215 -130 -355t-341 -140q-240 0 -355 200v-180h-106v1413h106v-645q127 199 359 199q209 0 338 -138.5t129 -353.5zM983 475q0 172 -96 285.5t-262 113.5q-168 0 -263.5 -113.5t-95.5 -285.5t95.5 -285.5t263.5 -113.5q166 0 262 113.5t96 285.5z" />
<glyph unicode="c" horiz-adv-x="962" d="M874 215l62 -72q-139 -164 -389 -163q-195 0 -330 140t-135 355q0 213 141.5 352.5t333.5 139.5q248 0 375 -164l-68 -72q-121 139 -311 139q-147 0 -252.5 -108.5t-105.5 -280.5q0 -178 101 -291.5t261 -113.5q188 0 305 125z" />
<glyph unicode="d" horiz-adv-x="1177" d="M82 475q0 215 129 353.5t338 138.5q227 0 356 -195v641h109v-1413h-109v176q-117 -197 -352 -196q-211 0 -341 140t-130 355zM195 475q0 -172 96 -285.5t262 -113.5q168 0 263 113.5t95 285.5t-95 285.5t-263 113.5q-166 0 -262 -113.5t-96 -285.5z" />
<glyph unicode="e" horiz-adv-x="1044" d="M973 522l-6 -71h-772q8 -172 100 -273.5t252 -101.5q96 0 179 30.5t118 61.5l37 31l51 -76q-4 -6 -14.5 -15.5t-45 -34t-76.5 -44t-112 -34.5t-147 -15q-205 0 -330 138t-125 357q0 215 134 353.5t327 138.5q186 0 308 -126t122 -319zM199 543h665q0 49 -18.5 104 t-56 107.5t-103 86t-149.5 33.5q-160 0 -246 -105t-92 -226z" />
<glyph unicode="f" horiz-adv-x="491" d="M573 1413l-10 -92q-51 20 -102 20q-72 0 -112 -38.5t-49 -88t-9 -129.5v-139h241v-96h-241v-850h-107v850h-143v96h143v129q0 168 56 250q72 109 200 109q45 0 79 -5.5t44 -11.5z" />
<glyph unicode="g" horiz-adv-x="1167" d="M1014 950v-745q0 -285 -78 -410q-129 -205 -410 -205q-109 0 -209 36t-145 71l-45 37l61 82q45 -45 144.5 -87t204.5 -42q197 0 286 123q82 115 82 323v70q-115 -203 -358 -203q-195 0 -330 133t-135 350t135 350.5t330 133.5q123 0 216 -54.5t142 -142.5v180h109z M911 485q0 168 -94 277.5t-264 109.5t-264 -109.5t-94 -277.5t94 -278.5t264 -110.5t264 110.5t94 278.5z" />
<glyph unicode="h" horiz-adv-x="1067" d="M913 567v-567h-108v563q0 66 -8.5 115t-31 97t-70.5 73.5t-122 25.5q-147 0 -225 -112.5t-78 -290.5v-471h-106v1413h106v-639q35 86 120 139.5t188 53.5q190 0 262.5 -105t72.5 -295z" />
<glyph unicode="i" horiz-adv-x="434" d="M305 1288q0 -37 -25.5 -62.5t-62.5 -25.5t-62.5 25.5t-25.5 62.5t25.5 62.5t62.5 25.5t62.5 -25.5t25.5 -62.5zM270 950v-950h-106v950h106z" />
<glyph unicode="j" horiz-adv-x="434" d="M305 1288q0 -37 -25.5 -62.5t-62.5 -25.5t-62.5 25.5t-25.5 62.5t25.5 62.5t62.5 25.5t62.5 -25.5t25.5 -62.5zM270 950v-970q0 -182 -45 -263q-76 -127 -221 -127q-27 0 -50.5 4.5t-31.5 8.5l-10 2v92q41 -14 92 -14q55 0 89 22.5t48.5 70.5t18.5 90t4 114v970h106z" />
<glyph unicode="k" horiz-adv-x="911" d="M471 588l451 -588h-134l-389 522l-129 -119v-403h-106v1413h106v-891l457 428h133z" />
<glyph unicode="l" horiz-adv-x="434" d="M270 1413v-1413h-106v1413h106z" />
<glyph unicode="m" horiz-adv-x="1591" d="M1448 578v-578h-107v578q0 297 -204 296q-133 0 -208 -109.5t-75 -268.5v-496h-106v578q0 297 -205 296q-133 0 -208 -109.5t-75 -268.5v-496h-106v950h106v-176q31 80 112 136.5t175 56.5q217 0 282 -199q47 92 127 145.5t174 53.5q318 0 318 -389z" />
<glyph unicode="n" horiz-adv-x="1046" d="M903 567v-567h-108v563q0 66 -8.5 115t-31 97t-70.5 73.5t-122 25.5q-147 0 -225 -112.5t-78 -290.5v-471h-106v950h106v-176q35 86 120 139.5t187 53.5q190 0 263 -105t73 -295z" />
<glyph unicode="o" horiz-adv-x="1136" d="M1055 471q0 -213 -140.5 -352t-347.5 -139q-205 0 -345 139t-140 352t140 354.5t345 141.5q207 0 347.5 -141.5t140.5 -354.5zM942 475q0 170 -102.5 284.5t-272.5 114.5q-168 0 -270 -114.5t-102 -284.5t102 -284.5t270 -114.5q170 0 272.5 114.5t102.5 284.5z" />
<glyph unicode="p" horiz-adv-x="1177" d="M1096 471q0 -215 -129 -353t-338 -138q-231 0 -359 198v-567h-106v1339h106v-184q119 201 355 201q215 0 343 -140.5t128 -355.5zM983 471q0 172 -96 287.5t-262 115.5q-168 0 -263.5 -114.5t-95.5 -288.5q0 -170 95.5 -282.5t263.5 -112.5t263 111.5t95 283.5z" />
<glyph unicode="q" horiz-adv-x="1167" d="M82 471q0 215 128 355.5t343 140.5q236 0 354 -201v184h107v-1339h-107v567q-125 -199 -358 -198q-209 0 -338 140t-129 351zM195 471q0 -172 95 -283.5t263 -111.5t263 112.5t95 282.5q0 174 -95 288.5t-263 114.5q-170 0 -264 -115.5t-94 -287.5z" />
<glyph unicode="r" horiz-adv-x="614" d="M604 952l-10 -104q-45 16 -102 16q-100 0 -164 -86q-68 -92 -68 -266v-512h-106v950h106v-178q25 92 92.5 143.5t149.5 51.5q27 0 52.5 -4.5t37.5 -8.5z" />
<glyph unicode="s" horiz-adv-x="798" d="M731 260q0 -129 -97 -204.5t-237 -75.5q-236 0 -346 184l76 61q102 -150 274 -149q96 0 160 46t64 134q0 25 -8.5 47.5t-29 40.5l-35.5 30.5t-47 27t-45.5 19.5l-49 17.5t-37.5 12.5q-47 16 -78 30.5t-80 45t-75.5 78.5t-26.5 108q0 121 87 187.5t201 66.5 q182 0 299 -133l-65 -66q-98 109 -238 109q-82 0 -132 -40t-50 -112q0 -47 34 -83t73.5 -55.5t111.5 -43.5q63 -23 99 -38.5t90.5 -49t81 -83t26.5 -112.5z" />
<glyph unicode="t" horiz-adv-x="573" d="M532 102l11 -92q-51 -31 -144 -30q-125 0 -180 102q-23 45 -29 102.5t-6 184.5v481h-143v96h143v303h109v-303h239v-96h-241v-545q0 -47 4 -81t17.5 -71.5t43 -57t74.5 -19.5z" />
<glyph unicode="u" horiz-adv-x="1038" d="M885 950v-950h-107v154q-94 -174 -307 -174q-174 0 -256 106q-72 92 -72 299v565h107v-581q0 -61 8 -107.5t30.5 -93.5t73 -71.5t123.5 -24.5q147 0 220 107.5t73 260.5v510h107z" />
<glyph unicode="v" horiz-adv-x="901" d="M778 950h113l-399 -950h-82l-400 950h113l328 -796z" />
<glyph unicode="w" horiz-adv-x="1474" d="M1331 950h113l-318 -950h-92l-297 799l-297 -799h-92l-317 950h112l256 -796l297 798h82l297 -798z" />
<glyph unicode="x" horiz-adv-x="921" d="M522 502l389 -502h-123l-327 434l-328 -434h-123l389 502l-344 448h119l287 -383l287 383h116z" />
<glyph unicode="y" horiz-adv-x="890" d="M778 950h113l-481 -1171q-74 -178 -213 -178l-115 24l20 103q37 -20 95 -21q47 0 78.5 30t62.5 120l55 157l-383 936h113l328 -827z" />
<glyph unicode="z" horiz-adv-x="880" d="M829 96v-96h-778v76l608 774h-577v96h717v-76l-611 -774h641z" />
<glyph unicode="{" horiz-adv-x="512" d="M440 -184v-88h-30q-145 0 -195.5 71.5t-50.5 235.5v379q0 174 -133 174v108q133 0 133 174v379q0 164 50 235.5t196 71.5h30v-88h-30q-78 0 -109 -30.5t-31 -106.5v-430q0 -131 -30.5 -181t-106.5 -75v-6q76 -25 106.5 -75t30.5 -181v-430q0 -76 31 -106.5t109 -30.5h30z " />
<glyph unicode="|" horiz-adv-x="512" d="M301 1638v-1843h-92v1843h92z" />
<glyph unicode="}" horiz-adv-x="512" d="M481 696v-108q-133 0 -133 -174v-379q0 -164 -50 -235.5t-196 -71.5h-30v88h30q78 0 108 30.5t30 106.5v430q0 129 31.5 180t107.5 76v6q-76 25 -107.5 76t-31.5 180v430q0 78 -30 107.5t-108 29.5h-30v88h30q145 0 195.5 -71.5t50.5 -235.5v-379q0 -174 133 -174z" />
<glyph unicode="~" horiz-adv-x="1320" d="M1079 696l78 -51q-115 -205 -276 -205q-80 0 -236 76q-152 78 -211 78q-106 0 -194 -154l-76 52q111 205 276 204q84 0 236 -78l35 -17l38 -18t33.5 -14.5t35.5 -13.5t31.5 -8t35.5 -4q110 -1 194 153z" />
<glyph unicode="&#xa1;" horiz-adv-x="583" d="M389 872q0 -41 -27.5 -68.5t-70.5 -27.5q-41 0 -68.5 27.5t-27.5 68.5q0 43 27.5 71t68.5 28q43 0 70.5 -28t27.5 -71zM338 612l10 -1075h-112l10 1075h92z" />
<glyph unicode="&#xa2;" d="M952 352l52 -76q-53 -53 -150.5 -98t-194.5 -45v-194h-92v198q-186 14 -305 153.5t-119 334.5q0 193 119 331t305 160v195h92v-193q111 -2 205 -47t133 -94l-55 -76q-37 43 -112.5 82t-170.5 41v-793q84 2 168 39t125 82zM567 236v786q-137 -16 -225 -131t-88 -264.5 t87 -263t226 -127.5z" />
<glyph unicode="&#xa3;" d="M1044 102v-102h-911v102h236q39 61 65.5 150.5t26.5 157.5l-21 174h-245v92h219l-56 143q-61 154 -61 266q0 143 102.5 246t266.5 103q240 0 338 -185l-82 -61q-78 154 -256 153q-127 0 -191.5 -74.5t-64.5 -170.5q0 -123 61 -277l55 -143h314v-92h-287q20 -82 20 -174 q0 -68 -26.5 -157t-65.5 -151h563z" />
<glyph unicode="&#xa4;" d="M993 246l72 -62q-10 -18 -28.5 -42.5t-62.5 -67.5t-120 -71t-168 -28q-199 0 -331 153t-160 411h-144v96h135q-2 49 -2 80l2 80h-135v96h144q31 236 162.5 389.5t326.5 153.5q256 0 371 -185l-72 -71q-115 158 -303 157q-129 0 -232.5 -110.5t-136.5 -333.5h590v-96h-598 q-2 -49 -2 -80l2 -80h598v-96h-590q27 -217 127.5 -337t247.5 -120q198 0 307 164z" />
<glyph unicode="&#xa5;" d="M967 1413h129l-359 -614h256v-94h-307l-55 -95v-78h362v-96h-362v-436h-117v436h-360v96h360v78l-53 95h-307v94h256l-359 614h127l395 -696z" />
<glyph unicode="&#xa6;" horiz-adv-x="512" d="M301 1638v-634h-92v634h92zM301 635v-635h-92v635h92z" />
<glyph unicode="&#xa7;" d="M963 1208l-82 -51q-78 188 -277 189q-102 0 -163.5 -55.5t-61.5 -153.5q0 -92 66.5 -152.5t189.5 -114.5q137 -59 222 -140t85 -218q0 -57 -22.5 -108.5t-53 -84t-62.5 -56t-54 -34.5l-23 -10q86 -47 142.5 -125t56.5 -182q0 -139 -103.5 -230.5t-259.5 -91.5 q-293 0 -379 256l92 41q74 -205 297 -204q106 0 176 57t70 168q0 104 -73.5 167.5t-213.5 119.5q-317 127 -317 352q0 86 46 156.5t92 101.5t87 45q-6 4 -18 11t-41 33t-51.5 55.5t-41 77.5t-18.5 99q0 137 93.5 222.5t240.5 85.5q273 -1 359 -226zM834 516q0 129 -148 211 l-174 82q-190 -63 -190 -256q0 -129 149 -211l174 -82q189 68 189 256z" />
<glyph unicode="&#xa8;" horiz-adv-x="573" d="M512 1264q0 -41 -25.5 -67t-62.5 -26q-35 0 -60.5 26t-25.5 67t25.5 66.5t60.5 25.5q37 0 62.5 -25.5t25.5 -66.5zM236 1264q0 -41 -26 -67t-63 -26q-35 0 -60.5 26t-25.5 67t26 66.5t60 25.5q37 0 63 -25.5t26 -66.5z" />
<glyph unicode="&#xa9;" horiz-adv-x="1638" d="M1548 706.5q0 -305.5 -212 -517.5t-517 -212t-517 212t-212 517.5t212 517.5t517 212t517 -212t212 -517.5zM1460 706.5q0 262.5 -189.5 452t-451.5 189.5t-451.5 -189.5t-189.5 -452t189.5 -451.5t451.5 -189t451.5 189t189.5 451.5zM1110 469l59 -63 q-109 -131 -321 -132q-176 0 -297 123t-121 309.5t121 309.5t297 123q207 0 311 -121l-57 -74q-35 43 -99.5 76t-148.5 33q-133 0 -225 -92.5t-92 -249.5q0 -160 89 -252t228 -92q156 0 256 102z" />
<glyph unicode="&#xaa;" horiz-adv-x="686" d="M563 707v-334h-96v78q-27 -31 -83 -60t-118 -29q-78 0 -141.5 47.5t-63.5 133.5q0 166 230 174l176 4v16q0 76 -47 115t-119 39q-55 0 -105.5 -19.5t-62.5 -31.5l-41 61q88 66 215 66q129 0 195 -66q61 -61 61 -194zM467 522v133l-160 -6q-139 -4 -139 -102q0 -49 35 -78 t98 -29q100 0 166 82z" />
<glyph unicode="&#xab;" horiz-adv-x="890" d="M512 475l246 -325l-76 -56l-289 381l289 381l74 -57zM219 475l246 -325l-76 -56l-289 381l289 381l74 -57z" />
<glyph unicode="&#xac;" horiz-adv-x="1325" d="M1178 911v-563h-93v471h-942v92h1035z" />
<glyph unicode="&#xad;" horiz-adv-x="534" d="M492 621v-103h-449v103h449z" />
<glyph unicode="&#xae;" horiz-adv-x="1638" d="M1548 706.5q0 -305.5 -212 -517.5t-517 -212t-517 212t-212 517.5t212 517.5t517 212t517 -212t212 -517.5zM1460 706.5q0 262.5 -189.5 452t-451.5 189.5t-451.5 -189.5t-189.5 -452t189.5 -451.5t451.5 -189t451.5 189t189.5 451.5zM893 657l237 -368h-126l-220 358 h-116v-358h-101v835h238q129 0 205.5 -61.5t76.5 -175.5q0 -104 -58 -159t-136 -71zM979 887q0 150 -188 149h-123v-301h123q188 0 188 152z" />
<glyph unicode="&#xaf;" horiz-adv-x="573" d="M512 1249v-82h-451v82h451z" />
<glyph unicode="&#xb0;" horiz-adv-x="819" d="M711 1208q0 -129 -88 -213t-213 -84t-214.5 84t-89.5 213t89.5 213t214.5 84t213 -84t88 -213zM618 1208q0 86 -59 147.5t-149.5 61.5t-150.5 -61.5t-60 -147.5t60 -148.5t150.5 -62.5t149.5 62.5t59 148.5z" />
<glyph unicode="&#xb1;" horiz-adv-x="1320" d="M1178 926v-92h-471v-431h-93v431h-471v92h471v430h93v-430h471zM1178 311v-92h-1035v92h1035z" />
<glyph unicode="&#xb2;" horiz-adv-x="727" d="M655 682v-84h-573v78l338 348q70 70 101.5 123t31.5 117q0 70 -55.5 116.5t-145.5 46.5q-166 0 -194 -174l-86 7q16 113 91 181t195 68q123 0 205 -69.5t82 -175.5q0 -27 -6 -53.5t-12 -46t-23 -46.5l-24 -40q-8 -13 -33 -40.5t-31 -33.5l-35 -36l-30 -32l-252 -254h456z " />
<glyph unicode="&#xb3;" horiz-adv-x="727" d="M659 846q0 -115 -83.5 -186.5t-210.5 -71.5q-109 0 -187 55t-96 154l84 18q16 -68 66.5 -106.5t129.5 -38.5q84 0 145.5 48t61.5 126q0 86 -59 134t-152 50h-32v82l45 2q74 4 127 48t53 120q0 63 -49 105t-127 42q-72 0 -120 -35.5t-65 -97.5l-75 25q27 86 96.5 138 t163.5 52q113 0 189.5 -65.5t76.5 -163.5q0 -70 -44 -125t-116 -82v-2q82 -20 130 -81.5t48 -143.5z" />
<glyph unicode="&#xb4;" horiz-adv-x="573" d="M317 1413h134l-236 -297h-92z" />
<glyph unicode="&#xb5;" horiz-adv-x="1052" d="M899 946v-946h-108v143q-35 -61 -117 -113.5t-170 -52.5q-90 0 -156.5 32t-87.5 73v-471h-106v1335h106v-547q0 -152 51 -237.5t193 -85.5q145 0 216 92t71 242v536h108z" />
<glyph unicode="&#xb6;" d="M1024 1413v-92h-113v-1710h-102v1710h-184v-1710h-103v1003q-180 0 -289.5 105.5t-109.5 294.5q0 193 112.5 296t327.5 103h461z" />
<glyph unicode="&#xb7;" horiz-adv-x="583" d="M389 588q0 -41 -27.5 -68.5t-70.5 -27.5q-41 0 -68.5 27.5t-27.5 68.5q0 43 27.5 70.5t68.5 27.5q43 0 70.5 -27.5t27.5 -70.5z" />
<glyph unicode="&#xb8;" horiz-adv-x="614" d="M369 0h92l-174 -297h-133z" />
<glyph unicode="&#xb9;" horiz-adv-x="727" d="M487 1489v-891h-90v815h-178v76h268z" />
<glyph unicode="&#xba;" horiz-adv-x="768" d="M686 666q0 -129 -87 -216.5t-216 -87.5q-127 0 -214 87.5t-87 216.5t87 215t214 86q129 0 216 -86t87 -215zM586 669.5q0 100.5 -58.5 157t-144.5 56.5q-84 0 -142.5 -56.5t-58.5 -156.5q0 -98 58.5 -157.5t142.5 -59.5t143.5 58t59.5 158.5z" />
<glyph unicode="&#xbb;" horiz-adv-x="890" d="M500 856l291 -381l-291 -381l-72 58l242 323l-244 326zM207 856l291 -381l-291 -381l-72 58l242 323l-244 326z" />
<glyph unicode="&#xbc;" horiz-adv-x="1748" d="M1569 272v-84h-133v-188h-90v188h-465v52l485 671h70v-639h133zM1147 1444l76 -47l-871 -1444l-76 47zM412 1413v-850h-90v772h-179v78h269zM997 272h349v486z" />
<glyph unicode="&#xbd;" horiz-adv-x="1751" d="M1618 86v-86h-563l-17 61l303 297q154 150 154 263q0 80 -54.5 129t-135.5 49q-133 0 -199 -154l-72 41q96 195 287 195q111 0 188.5 -70t77.5 -176q0 -68 -28.5 -130.5t-60.5 -99t-85 -88.5l-242 -231h447zM1147 1444l76 -47l-871 -1444l-76 47zM412 1413v-850h-90v772 h-179v78h269z" />
<glyph unicode="&#xbe;" horiz-adv-x="1748" d="M1569 272v-84h-133v-188h-90v188h-465v52l485 671h70v-639h133zM1229 1444l76 -47l-871 -1444l-76 47zM659 846q0 -115 -83.5 -186.5t-210.5 -71.5q-109 0 -187 55t-96 154l84 18q16 -68 66.5 -106.5t129.5 -38.5q84 0 145.5 48t61.5 126q0 86 -59 134t-152 50h-32v82 l45 2q74 4 127 48t53 120q0 63 -49 105t-127 42q-72 0 -120 -35.5t-65 -97.5l-75 25q27 86 96.5 138t163.5 52q113 0 189.5 -65.5t76.5 -163.5q0 -70 -44 -125t-116 -82v-2q82 -20 130 -81.5t48 -143.5zM997 272h349v486z" />
<glyph unicode="&#xbf;" horiz-adv-x="952" d="M598 872q0 -41 -27.5 -68.5t-68.5 -27.5q-43 0 -71 27.5t-28 68.5q0 43 28 71t71 28q41 0 68.5 -28t27.5 -71zM741 -217l82 -51q-14 -33 -36.5 -65t-62.5 -68.5t-104.5 -59t-144.5 -22.5q-162 0 -257 93t-95 224q0 76 29.5 143.5t57.5 99.5t91 95l29 28q25 24 27.5 27.5 t21 23t21.5 27t15.5 24.5t15.5 28.5t9 30t8.5 37t2.5 40.5l4 174h92l6 -153q2 -66 -10.5 -118t-42 -95t-47 -61.5t-54.5 -53.5q-39 -35 -56 -52.5t-49 -57t-45 -82.5t-13 -95q0 -106 69.5 -168.5t179.5 -62.5q98 0 163.5 50t92.5 120z" />
<glyph unicode="&#xc0;" horiz-adv-x="1290" d="M496 1833l194 -297h-92l-236 297h134zM676 1417l604 -1417h-129l-174 424h-674l-176 -424h-117l604 1417h62zM344 526h590l-295 723z" />
<glyph unicode="&#xc1;" horiz-adv-x="1290" d="M793 1833h133l-236 -297h-92zM676 1417l604 -1417h-129l-174 424h-674l-176 -424h-117l604 1417h62zM344 526h590l-295 723z" />
<glyph unicode="&#xc2;" horiz-adv-x="1290" d="M676 1833l194 -297h-92l-133 215l-133 -215h-92l194 297h62zM676 1417l604 -1417h-129l-174 424h-674l-176 -424h-117l604 1417h62zM344 526h590l-295 723z" />
<glyph unicode="&#xc3;" horiz-adv-x="1290" d="M864 1765l68 -20q-8 -74 -55.5 -116t-104.5 -42q-25 0 -49.5 6t-37.5 12.5t-30.5 16.5t-19.5 10l-25 17q-27 16 -51 25t-47 9q-37 0 -60.5 -25.5t-27.5 -60.5l-66 21q8 74 54.5 116t103.5 42q20 0 39.5 -3.5t35 -9.5t26.5 -12l24 -12q12 -6 14 -8l25 -17 q27 -16 51.5 -25.5t46.5 -9.5q37 0 59.5 26.5t26.5 59.5zM676 1417l604 -1417h-129l-174 424h-674l-176 -424h-117l604 1417h62zM344 526h590l-295 723z" />
<glyph unicode="&#xc4;" horiz-adv-x="1290" d="M870 1673q0 -41 -25.5 -66.5t-62.5 -25.5q-35 0 -60.5 25.5t-25.5 66.5t26 66.5t60 25.5q37 0 62.5 -25.5t25.5 -66.5zM594 1673q0 -41 -25.5 -66.5t-62.5 -25.5q-35 0 -60.5 25.5t-25.5 66.5t25.5 66.5t60.5 25.5q37 0 62.5 -25.5t25.5 -66.5zM676 1417l604 -1417h-129 l-174 424h-674l-176 -424h-117l604 1417h62zM344 526h590l-295 723z" />
<glyph unicode="&#xc5;" horiz-adv-x="1290" d="M829 1693.5q0 -75.5 -54 -130t-130 -54.5t-130 54.5t-54 130t54 130t130 54.5t130 -54.5t54 -130zM676 1417l604 -1417h-129l-174 424h-674l-176 -424h-117l604 1417h62zM752 1694q0 47 -31 79.5t-76 32.5t-76.5 -32.5t-31.5 -79.5t31.5 -80t76.5 -33t76 33t31 80z M344 526h590l-295 723z" />
<glyph unicode="&#xc6;" horiz-adv-x="1714" d="M1618 100v-100h-727v430h-553l-266 -430h-123l891 1413h764v-100h-603v-502h566v-100h-566v-611h617zM401 532h490v783h-6z" />
<glyph unicode="&#xc7;" horiz-adv-x="1382" d="M1249 266l72 -71q-199 -219 -518 -220l-133 -282h-133l174 289q-262 25 -443.5 219t-181.5 504q0 319 205 524t508 205q307 0 512 -205l-72 -82q-59 76 -178 131t-262 55q-262 0 -428 -174t-166 -450.5t166 -452.5t428 -176q280 0 450 186z" />
<glyph unicode="&#xc8;" horiz-adv-x="1054" d="M438 1833l195 -297h-92l-236 297h133zM956 100v-100h-782v1413h768v-100h-657v-512h620v-101h-620v-600h671z" />
<glyph unicode="&#xc9;" horiz-adv-x="1054" d="M643 1833h133l-235 -297h-92zM956 100v-100h-782v1413h768v-100h-657v-512h620v-101h-620v-600h671z" />
<glyph unicode="&#xca;" horiz-adv-x="1054" d="M588 1833l194 -297h-92l-133 215l-133 -215h-92l194 297h62zM956 100v-100h-782v1413h768v-100h-657v-512h620v-101h-620v-600h671z" />
<glyph unicode="&#xcb;" horiz-adv-x="1054" d="M782 1673q0 -41 -25.5 -66.5t-60.5 -25.5q-37 0 -62.5 25.5t-25.5 66.5t25.5 66.5t62.5 25.5q35 0 60.5 -25.5t25.5 -66.5zM506 1673q0 -41 -25.5 -66.5t-60.5 -25.5q-37 0 -62.5 25.5t-25.5 66.5t25.5 66.5t62.5 25.5q35 0 60.5 -25.5t25.5 -66.5zM956 100v-100h-782 v1413h768v-100h-657v-512h620v-101h-620v-600h671z" />
<glyph unicode="&#xcc;" horiz-adv-x="458" d="M90 1833l195 -297h-92l-236 297h133zM285 1413v-1413h-111v1413h111z" />
<glyph unicode="&#xcd;" horiz-adv-x="458" d="M369 1833h133l-236 -297h-92zM285 1413v-1413h-111v1413h111z" />
<glyph unicode="&#xce;" horiz-adv-x="458" d="M260 1833l195 -297h-93l-133 215l-133 -215h-92l195 297h61zM285 1413v-1413h-111v1413h111z" />
<glyph unicode="&#xcf;" horiz-adv-x="458" d="M455 1683q0 -41 -26 -66.5t-62 -25.5q-35 0 -60.5 25.5t-25.5 66.5t25.5 67t60.5 26q37 0 62.5 -26t25.5 -67zM178 1683q0 -41 -25.5 -66.5t-62.5 -25.5q-35 0 -60.5 25.5t-25.5 66.5t25.5 67t60.5 26q37 0 62.5 -26t25.5 -67zM285 1413v-1413h-111v1413h111z" />
<glyph unicode="&#xd0;" horiz-adv-x="1382" d="M1294 707q0 -297 -215 -512q-80 -80 -213 -137.5t-303 -57.5h-389v696h-143v101h143v616h389q170 0 303 -57.5t213 -136.5q215 -215 215 -512zM1180 707q0 272 -197 454q-162 152 -430 152h-268v-516h411v-101h-411v-596h268q270 0 430 150q197 183 197 457z" />
<glyph unicode="&#xd1;" horiz-adv-x="1501" d="M971 1765l65 -20q-8 -74 -54 -116t-103 -42q-20 0 -40 3t-35.5 9.5t-26.5 12.5l-23 12q-12 6 -15 8l-26 17q-25 16 -49.5 25t-47.5 9q-37 0 -59 -26.5t-27 -59.5l-67 21q8 74 55 116t105 42q25 0 49 -6.5t37.5 -12.5t31 -16t19.5 -10l26 -17q25 -16 49.5 -25.5t47.5 -9.5 q37 0 60.5 25.5t27.5 60.5zM1327 1413v-1413h-100l-942 1239v-1239h-111v1413h111l932 -1218v1218h110z" />
<glyph unicode="&#xd2;" horiz-adv-x="1607" d="M655 1833l195 -297h-92l-236 297h133zM1520 704.5q0 -327.5 -209 -528.5t-508 -201t-508 201t-209 528.5t209 528.5t508 201t508 -201t209 -528.5zM1405 707q0 287 -175 457.5t-427 170.5t-426 -171t-174 -457q0 -285 175 -456t425 -171q252 0 427 171t175 456z" />
<glyph unicode="&#xd3;" horiz-adv-x="1607" d="M952 1833h133l-235 -297h-92zM1520 704.5q0 -327.5 -209 -528.5t-508 -201t-508 201t-209 528.5t209 528.5t508 201t508 -201t209 -528.5zM1405 707q0 287 -175 457.5t-427 170.5t-426 -171t-174 -457q0 -285 175 -456t425 -171q252 0 427 171t175 456z" />
<glyph unicode="&#xd4;" horiz-adv-x="1607" d="M834 1833l194 -297h-92l-133 215l-133 -215h-92l194 297h62zM1520 704.5q0 -327.5 -209 -528.5t-508 -201t-508 201t-209 528.5t209 528.5t508 201t508 -201t209 -528.5zM1405 707q0 287 -175 457.5t-427 170.5t-426 -171t-174 -457q0 -285 175 -456t425 -171 q252 0 427 171t175 456z" />
<glyph unicode="&#xd5;" horiz-adv-x="1607" d="M1024 1765l66 -20q-8 -74 -54.5 -116t-103.5 -42q-20 0 -40 3t-35 9.5t-27 12.5l-23 12q-12 6 -14 8l-27 17q-25 16 -49.5 25t-46.5 9q-37 0 -59.5 -26.5t-26.5 -59.5l-68 21q8 74 55 116t105 42q25 0 49.5 -6.5t37.5 -12.5t30.5 -16t19.5 -10l27 -17q25 -16 49 -25.5 t47 -9.5q37 0 60.5 25.5t27.5 60.5zM1520 704.5q0 -327.5 -209 -528.5t-508 -201t-508 201t-209 528.5t209 528.5t508 201t508 -201t209 -528.5zM1405 707q0 287 -175 457.5t-427 170.5t-426 -171t-174 -457q0 -285 175 -456t425 -171q252 0 427 171t175 456z" />
<glyph unicode="&#xd6;" horiz-adv-x="1607" d="M1028 1673q0 -41 -25.5 -66.5t-60.5 -25.5q-37 0 -62.5 25.5t-25.5 66.5t25.5 66.5t62.5 25.5q35 0 60.5 -25.5t25.5 -66.5zM752 1673q0 -41 -26 -66.5t-60 -25.5q-37 0 -62.5 25.5t-25.5 66.5t25.5 66.5t62.5 25.5q35 0 60.5 -25.5t25.5 -66.5zM1520 704.5 q0 -327.5 -209 -528.5t-508 -201t-508 201t-209 528.5t209 528.5t508 201t508 -201t209 -528.5zM1405 707q0 287 -175 457.5t-427 170.5t-426 -171t-174 -457q0 -285 175 -456t425 -171q252 0 427 171t175 456z" />
<glyph unicode="&#xd7;" horiz-adv-x="1320" d="M727 705l430 -435l-61 -65l-437 434l-434 -434l-61 65l430 435l-430 432l61 65l434 -434l437 434l61 -65z" />
<glyph unicode="&#xd8;" horiz-adv-x="1607" d="M1520 705q0 -328 -209 -529t-508 -201q-279 0 -477 175l-168 -170l-66 65l166 170q-172 199 -172 490q0 328 209 528.5t508 200.5q283 0 479 -174l172 174l66 -68l-170 -174q170 -196 170 -487zM338 297l872 887q-168 152 -407 151q-252 0 -426 -171t-174 -457 q0 -246 135 -410zM1405 707q0 242 -131 409l-871 -889q164 -147 400 -147q252 0 427 171t175 456z" />
<glyph unicode="&#xd9;" horiz-adv-x="1331" d="M565 1833l195 -297h-92l-236 297h133zM1167 1413v-844q0 -147 -18.5 -243.5t-81.5 -175.5q-139 -174 -401.5 -174.5t-401.5 174.5q-63 80 -81.5 176t-18.5 243v844h110v-854q0 -233 72 -332q111 -150 319.5 -149.5t319.5 149.5q72 98 72 332v854h110z" />
<glyph unicode="&#xda;" horiz-adv-x="1331" d="M766 1833h133l-235 -297h-93zM1167 1413v-844q0 -147 -18.5 -243.5t-81.5 -175.5q-139 -174 -401.5 -174.5t-401.5 174.5q-63 80 -81.5 176t-18.5 243v844h110v-854q0 -233 72 -332q111 -150 319.5 -149.5t319.5 149.5q72 98 72 332v854h110z" />
<glyph unicode="&#xdb;" horiz-adv-x="1331" d="M696 1833l195 -297h-92l-133 215l-134 -215h-92l195 297h61zM1167 1413v-844q0 -147 -18.5 -243.5t-81.5 -175.5q-139 -174 -401.5 -174.5t-401.5 174.5q-63 80 -81.5 176t-18.5 243v844h110v-854q0 -233 72 -332q111 -150 319.5 -149.5t319.5 149.5q72 98 72 332v854 h110z" />
<glyph unicode="&#xdc;" horiz-adv-x="1331" d="M891 1673q0 -41 -25.5 -66.5t-62.5 -25.5q-35 0 -60.5 25.5t-25.5 66.5t25.5 66.5t60.5 25.5q37 0 62.5 -25.5t25.5 -66.5zM614 1673q0 -41 -25.5 -66.5t-62.5 -25.5q-35 0 -60.5 25.5t-25.5 66.5t26 66.5t60 25.5q37 0 62.5 -25.5t25.5 -66.5zM1167 1413v-844 q0 -147 -18.5 -243.5t-81.5 -175.5q-139 -174 -401.5 -174.5t-401.5 174.5q-63 80 -81.5 176t-18.5 243v844h110v-854q0 -233 72 -332q111 -150 319.5 -149.5t319.5 149.5q72 98 72 332v854h110z" />
<glyph unicode="&#xdd;" horiz-adv-x="1116" d="M659 1833h134l-236 -297h-92zM977 1413h129l-494 -809v-604h-110v604l-492 809h127l420 -706z" />
<glyph unicode="&#xde;" horiz-adv-x="1013" d="M932 745q0 -168 -129 -280q-111 -96 -326 -96h-192v-369h-111v1413h111v-293h192q215 0 326 -96q129 -113 129 -279zM815 745q0 137 -98 211q-92 66 -236 66h-196v-555h196q143 0 236 65q98 74 98 213z" />
<glyph unicode="&#xdf;" horiz-adv-x="1075" d="M993 424q0 -190 -131 -313t-350 -123l-102 12l10 98q80 -12 102 -12q141 0 250 86t109 252q0 176 -106.5 267t-282.5 91h-62v99h62q115 0 180 65.5t65 179.5q0 106 -72.5 160.5t-162.5 54.5q-127 0 -185 -88q-47 -70 -47 -229v-1024h-106v956q0 188 20 252q31 98 103 154 q90 72 235 72q133 0 227.5 -84t94.5 -213q0 -121 -63.5 -200t-135.5 -87v-6q135 -12 241.5 -127t106.5 -293z" />
<glyph unicode="&#xe0;" horiz-adv-x="942" d="M332 1413l194 -297h-92l-235 297h133zM809 563v-563h-109v133q-131 -154 -321 -153q-137 0 -227.5 81.5t-90.5 204.5q0 127 96.5 203t282.5 84l260 10v51q0 125 -74.5 192.5t-191.5 67.5q-94 0 -173 -29.5t-107 -51.5l-41 77q145 96 317 97q186 0 287 -107 q92 -102 92 -297zM700 246v235l-270 -16q-262 -14 -262 -199q0 -82 60.5 -138t170.5 -56q104 0 181 53t120 121z" />
<glyph unicode="&#xe1;" horiz-adv-x="942" d="M537 1413h133l-236 -297h-92zM809 563v-563h-109v133q-131 -154 -321 -153q-137 0 -227.5 81.5t-90.5 204.5q0 127 96.5 203t282.5 84l260 10v51q0 125 -74.5 192.5t-191.5 67.5q-94 0 -173 -29.5t-107 -51.5l-41 77q145 96 317 97q186 0 287 -107q92 -102 92 -297z M700 246v235l-270 -16q-262 -14 -262 -199q0 -82 60.5 -138t170.5 -56q104 0 181 53t120 121z" />
<glyph unicode="&#xe2;" horiz-adv-x="942" d="M465 1413l194 -297h-92l-133 215l-133 -215h-92l194 297h62zM809 563v-563h-109v133q-131 -154 -321 -153q-137 0 -227.5 81.5t-90.5 204.5q0 127 96.5 203t282.5 84l260 10v51q0 125 -74.5 192.5t-191.5 67.5q-94 0 -173 -29.5t-107 -51.5l-41 77q145 96 317 97 q186 0 287 -107q92 -102 92 -297zM700 246v235l-270 -16q-262 -14 -262 -199q0 -82 60.5 -138t170.5 -56q104 0 181 53t120 121z" />
<glyph unicode="&#xe3;" horiz-adv-x="942" d="M690 1356l68 -21q-8 -74 -55.5 -115.5t-104.5 -41.5q-25 0 -49.5 6t-37.5 12t-30.5 16.5t-19.5 10.5l-27 16q-25 16 -49.5 25.5t-46.5 9.5q-37 0 -60.5 -25.5t-27.5 -60.5l-66 20q8 74 54.5 116t103.5 42q20 0 39.5 -3t35 -9t26.5 -13l24 -12q12 -6 14 -8l27 -16 q25 -16 49.5 -25.5t46.5 -9.5q37 0 59.5 26.5t26.5 59.5zM809 563v-563h-109v133q-131 -154 -321 -153q-137 0 -227.5 81.5t-90.5 204.5q0 127 96.5 203t282.5 84l260 10v51q0 125 -74.5 192.5t-191.5 67.5q-94 0 -173 -29.5t-107 -51.5l-41 77q145 96 317 97 q186 0 287 -107q92 -102 92 -297zM700 246v235l-270 -16q-262 -14 -262 -199q0 -82 60.5 -138t170.5 -56q104 0 181 53t120 121z" />
<glyph unicode="&#xe4;" horiz-adv-x="942" d="M659 1264q0 -41 -25.5 -67t-60.5 -26q-37 0 -62.5 26t-25.5 67t26 66.5t62 25.5q35 0 60.5 -25.5t25.5 -66.5zM383 1264q0 -41 -25.5 -67t-60.5 -26q-37 0 -62.5 26t-25.5 67t25.5 66.5t62.5 25.5q35 0 60.5 -25.5t25.5 -66.5zM809 563v-563h-109v133 q-131 -154 -321 -153q-137 0 -227.5 81.5t-90.5 204.5q0 127 96.5 203t282.5 84l260 10v51q0 125 -74.5 192.5t-191.5 67.5q-94 0 -173 -29.5t-107 -51.5l-41 77q145 96 317 97q186 0 287 -107q92 -102 92 -297zM700 246v235l-270 -16q-262 -14 -262 -199q0 -82 60.5 -138 t170.5 -56q104 0 181 53t120 121z" />
<glyph unicode="&#xe5;" horiz-adv-x="942" d="M618 1294.5q0 -77.5 -53 -131t-131 -53.5t-131 53.5t-53 131t53 131t131 53.5t131 -53.5t53 -131zM809 563v-563h-109v133q-131 -154 -321 -153q-137 0 -227.5 81.5t-90.5 204.5q0 127 96.5 203t282.5 84l260 10v51q0 125 -74.5 192.5t-191.5 67.5q-94 0 -173 -29.5 t-107 -51.5l-41 77q145 96 317 97q186 0 287 -107q92 -102 92 -297zM543 1294q0 47 -32 80t-77 33t-75.5 -33t-30.5 -80t30.5 -79.5t75.5 -32.5t77 32.5t32 79.5zM700 246v235l-270 -16q-262 -14 -262 -199q0 -82 60.5 -138t170.5 -56q104 0 181 53t120 121z" />
<glyph unicode="&#xe6;" horiz-adv-x="1658" d="M1587 522l-6 -71h-772q8 -172 100 -273.5t252 -101.5q96 0 179 30.5t118 61.5l37 31l51 -76q-4 -6 -14 -15.5t-45 -34t-77 -44t-111.5 -34.5t-147.5 -15q-45 0 -86 6t-72.5 18t-60.5 26.5t-51.5 33t-39 34t-30.5 34t-21 28.5l-16 22l-6 13q-162 -215 -389 -215 q-137 0 -227.5 81.5t-90.5 204.5q0 127 96.5 203t282.5 84l260 10v51q0 125 -74.5 192.5t-191.5 67.5q-94 0 -173 -29.5t-107 -51.5l-41 77q145 96 317 97q186 0 287 -107q55 -61 61 -102q61 98 161.5 153.5t217.5 55.5q186 0 308 -126t122 -319zM813 543h666 q0 49 -18.5 104t-56.5 107.5t-103.5 86t-149.5 33.5q-160 0 -246 -105t-92 -226zM729 276q-29 86 -29 205l-270 -16q-262 -14 -262 -199q0 -82 60.5 -138t170.5 -56q109 0 202 64t128 140z" />
<glyph unicode="&#xe7;" horiz-adv-x="962" d="M874 215l62 -72q-127 -150 -342 -161l-160 -279h-133l199 279q-178 18 -298 155t-120 338q0 213 141.5 352.5t333.5 139.5q248 0 375 -164l-68 -72q-121 139 -311 139q-147 0 -252.5 -108.5t-105.5 -280.5q0 -178 101 -291.5t261 -113.5q188 0 305 125z" />
<glyph unicode="&#xe8;" horiz-adv-x="1044" d="M440 1413l195 -297h-92l-236 297h133zM973 522l-6 -71h-772q8 -172 100 -273.5t252 -101.5q96 0 179 30.5t118 61.5l37 31l51 -76q-4 -6 -14.5 -15.5t-45 -34t-76.5 -44t-112 -34.5t-147 -15q-205 0 -330 138t-125 357q0 215 134 353.5t327 138.5q186 0 308 -126 t122 -319zM199 543h665q0 49 -18.5 104t-56 107.5t-103 86t-149.5 33.5q-160 0 -246 -105t-92 -226z" />
<glyph unicode="&#xe9;" horiz-adv-x="1044" d="M645 1413h133l-235 -297h-92zM973 522l-6 -71h-772q8 -172 100 -273.5t252 -101.5q96 0 179 30.5t118 61.5l37 31l51 -76q-4 -6 -14.5 -15.5t-45 -34t-76.5 -44t-112 -34.5t-147 -15q-205 0 -330 138t-125 357q0 215 134 353.5t327 138.5q186 0 308 -126t122 -319z M199 543h665q0 49 -18.5 104t-56 107.5t-103 86t-149.5 33.5q-160 0 -246 -105t-92 -226z" />
<glyph unicode="&#xea;" horiz-adv-x="1044" d="M573 1413l195 -297h-92l-133 215l-133 -215h-93l195 297h61zM973 522l-6 -71h-772q8 -172 100 -273.5t252 -101.5q96 0 179 30.5t118 61.5l37 31l51 -76q-4 -6 -14.5 -15.5t-45 -34t-76.5 -44t-112 -34.5t-147 -15q-205 0 -330 138t-125 357q0 215 134 353.5t327 138.5 q186 0 308 -126t122 -319zM199 543h665q0 49 -18.5 104t-56 107.5t-103 86t-149.5 33.5q-160 0 -246 -105t-92 -226z" />
<glyph unicode="&#xeb;" horiz-adv-x="1044" d="M768 1264q0 -41 -25.5 -67t-62.5 -26q-35 0 -60.5 26t-25.5 67t25.5 66.5t60.5 25.5q37 0 62.5 -25.5t25.5 -66.5zM492 1264q0 -41 -26 -67t-63 -26q-35 0 -60.5 26t-25.5 67t26 66.5t60 25.5q37 0 63 -25.5t26 -66.5zM973 522l-6 -71h-772q8 -172 100 -273.5t252 -101.5 q96 0 179 30.5t118 61.5l37 31l51 -76q-4 -6 -14.5 -15.5t-45 -34t-76.5 -44t-112 -34.5t-147 -15q-205 0 -330 138t-125 357q0 215 134 353.5t327 138.5q186 0 308 -126t122 -319zM199 543h665q0 49 -18.5 104t-56 107.5t-103 86t-149.5 33.5q-160 0 -246 -105t-92 -226z " />
<glyph unicode="&#xec;" horiz-adv-x="434" d="M76 1413l194 -297h-92l-235 297h133zM270 950v-950h-106v950h106z" />
<glyph unicode="&#xed;" horiz-adv-x="434" d="M358 1413h134l-236 -297h-92zM270 950v-950h-106v950h106z" />
<glyph unicode="&#xee;" horiz-adv-x="434" d="M248 1413l194 -297h-92l-133 215l-133 -215h-92l194 297h62zM270 950v-950h-106v950h106z" />
<glyph unicode="&#xef;" horiz-adv-x="434" d="M442 1264q0 -41 -25.5 -67t-60.5 -26q-37 0 -62.5 26t-25.5 67t25.5 66.5t62.5 25.5q35 0 60.5 -25.5t25.5 -66.5zM166 1264q0 -41 -25.5 -67t-60.5 -26q-37 0 -62.5 26t-25.5 67t25.5 66.5t62.5 25.5q35 0 60.5 -25.5t25.5 -66.5zM270 950v-950h-106v950h106z" />
<glyph unicode="&#xf0;" horiz-adv-x="1136" d="M1055 461q0 -201 -142.5 -341t-349.5 -140q-205 0 -343 140t-138 341t141.5 343t339.5 142q182 0 318 -123q-109 227 -324 416l-240 -160l-47 68l226 147q-100 86 -209 154l61 61q133 -80 230 -163l251 163l45 -65l-235 -154q137 -115 231 -256q185 -276 185 -573z M942 465q0 168 -105.5 278.5t-269.5 110.5t-268 -110.5t-104 -278.5q0 -166 105.5 -277.5t266.5 -111.5q164 0 269.5 111.5t105.5 277.5z" />
<glyph unicode="&#xf1;" horiz-adv-x="1044" d="M737 1356l66 -21q-8 -74 -54.5 -115.5t-103.5 -41.5q-20 0 -39.5 3t-35 9t-26.5 12l-24 12q-12 6 -14 9l-27 16q-25 16 -49 25.5t-47 9.5q-37 0 -59.5 -26.5t-26.5 -59.5l-68 20q8 74 55.5 116t104.5 42q25 0 49.5 -6t37.5 -12.5t30.5 -16.5t19.5 -10l27 -16 q25 -16 49.5 -25.5t46.5 -9.5q37 0 60.5 25.5t27.5 60.5zM903 567v-567h-108v563q0 66 -8.5 115t-31 97t-70.5 73.5t-122 25.5q-147 0 -225 -112.5t-78 -290.5v-471h-106v950h106v-176q35 86 120 139.5t187 53.5q190 0 263 -105t73 -295z" />
<glyph unicode="&#xf2;" horiz-adv-x="1136" d="M465 1413l194 -297h-92l-235 297h133zM1055 471q0 -213 -140.5 -352t-347.5 -139q-205 0 -345 139t-140 352t140 354.5t345 141.5q207 0 347.5 -141.5t140.5 -354.5zM942 475q0 170 -102.5 284.5t-272.5 114.5q-168 0 -270 -114.5t-102 -284.5t102 -284.5t270 -114.5 q170 0 272.5 114.5t102.5 284.5z" />
<glyph unicode="&#xf3;" horiz-adv-x="1136" d="M670 1413h133l-236 -297h-92zM1055 471q0 -213 -140.5 -352t-347.5 -139q-205 0 -345 139t-140 352t140 354.5t345 141.5q207 0 347.5 -141.5t140.5 -354.5zM942 475q0 170 -102.5 284.5t-272.5 114.5q-168 0 -270 -114.5t-102 -284.5t102 -284.5t270 -114.5 q170 0 272.5 114.5t102.5 284.5z" />
<glyph unicode="&#xf4;" horiz-adv-x="1136" d="M598 1413l195 -297h-93l-133 215l-133 -215h-92l195 297h61zM1055 471q0 -213 -140.5 -352t-347.5 -139q-205 0 -345 139t-140 352t140 354.5t345 141.5q207 0 347.5 -141.5t140.5 -354.5zM942 475q0 170 -102.5 284.5t-272.5 114.5q-168 0 -270 -114.5t-102 -284.5 t102 -284.5t270 -114.5q170 0 272.5 114.5t102.5 284.5z" />
<glyph unicode="&#xf5;" horiz-adv-x="1136" d="M788 1356l66 -21q-8 -74 -54 -115.5t-104 -41.5q-20 0 -39.5 3t-35 9t-26.5 12l-24 12q-12 6 -14 9l-25 16q-27 16 -51 25.5t-47 9.5q-37 0 -59.5 -26.5t-26.5 -59.5l-67 20q8 74 55 116t104 42q25 0 49.5 -6t38 -12.5t30.5 -16.5t20 -10l24 -16q27 -16 51.5 -25.5 t46.5 -9.5q37 0 60.5 25.5t27.5 60.5zM1055 471q0 -213 -140.5 -352t-347.5 -139q-205 0 -345 139t-140 352t140 354.5t345 141.5q207 0 347.5 -141.5t140.5 -354.5zM942 475q0 170 -102.5 284.5t-272.5 114.5q-168 0 -270 -114.5t-102 -284.5t102 -284.5t270 -114.5 q170 0 272.5 114.5t102.5 284.5z" />
<glyph unicode="&#xf6;" horiz-adv-x="1136" d="M793 1264q0 -41 -26 -67t-60 -26q-37 0 -63 26t-26 67t26 66.5t63 25.5q35 0 60.5 -25.5t25.5 -66.5zM516 1264q0 -41 -25.5 -67t-60.5 -26q-37 0 -62.5 26t-25.5 67t25.5 66.5t62.5 25.5q35 0 60.5 -25.5t25.5 -66.5zM1055 471q0 -213 -140.5 -352t-347.5 -139 q-205 0 -345 139t-140 352t140 354.5t345 141.5q207 0 347.5 -141.5t140.5 -354.5zM942 475q0 170 -102.5 284.5t-272.5 114.5q-168 0 -270 -114.5t-102 -284.5t102 -284.5t270 -114.5q170 0 272.5 114.5t102.5 284.5z" />
<glyph unicode="&#xf7;" horiz-adv-x="1320" d="M754 1005.5q0 -38.5 -27 -66.5t-68 -28q-39 0 -66.5 28t-27.5 66.5t28 66.5t66.5 28t66.5 -28t28 -66.5zM1178 752v-93h-1035v93h1035zM754 407.5q0 -38.5 -27 -66.5t-68 -28q-39 0 -66.5 28t-27.5 66.5t28 66.5t66.5 28t66.5 -28t28 -66.5z" />
<glyph unicode="&#xf8;" horiz-adv-x="1136" d="M1014 983l61 -61l-129 -131q109 -135 109 -320q0 -213 -140.5 -352t-347.5 -139q-182 0 -317 112l-127 -129l-62 62l129 131q-109 131 -108 315q0 213 140 354.5t345 141.5q186 0 318 -113zM266 231l549 553q-100 90 -248 90q-168 0 -270 -114.5t-102 -284.5 q-1 -142 71 -244zM942 475q0 139 -70 244l-548 -553q100 -90 243 -90q170 0 272.5 114.5t102.5 284.5z" />
<glyph unicode="&#xf9;" horiz-adv-x="1038" d="M393 1413l195 -297h-92l-236 297h133zM885 950v-950h-107v154q-94 -174 -307 -174q-174 0 -256 106q-72 92 -72 299v565h107v-581q0 -61 8 -107.5t30.5 -93.5t73 -71.5t123.5 -24.5q147 0 220 107.5t73 260.5v510h107z" />
<glyph unicode="&#xfa;" horiz-adv-x="1038" d="M635 1413h133l-236 -297h-92zM885 950v-950h-107v154q-94 -174 -307 -174q-174 0 -256 106q-72 92 -72 299v565h107v-581q0 -61 8 -107.5t30.5 -93.5t73 -71.5t123.5 -24.5q147 0 220 107.5t73 260.5v510h107z" />
<glyph unicode="&#xfb;" horiz-adv-x="1038" d="M545 1413l194 -297h-92l-133 215l-133 -215h-92l194 297h62zM885 950v-950h-107v154q-94 -174 -307 -174q-174 0 -256 106q-72 92 -72 299v565h107v-581q0 -61 8 -107.5t30.5 -93.5t73 -71.5t123.5 -24.5q147 0 220 107.5t73 260.5v510h107z" />
<glyph unicode="&#xfc;" horiz-adv-x="1038" d="M739 1264q0 -41 -25.5 -67t-60.5 -26q-37 0 -62.5 26t-25.5 67t25.5 66.5t62.5 25.5q35 0 60.5 -25.5t25.5 -66.5zM463 1264q0 -41 -25.5 -67t-60.5 -26q-37 0 -62.5 26t-25.5 67t25.5 66.5t62.5 25.5q35 0 60.5 -25.5t25.5 -66.5zM885 950v-950h-107v154 q-94 -174 -307 -174q-174 0 -256 106q-72 92 -72 299v565h107v-581q0 -61 8 -107.5t30.5 -93.5t73 -71.5t123.5 -24.5q147 0 220 107.5t73 260.5v510h107z" />
<glyph unicode="&#xfd;" horiz-adv-x="890" d="M553 1413h133l-235 -297h-93zM778 950h113l-481 -1171q-74 -178 -213 -178l-115 24l20 103q37 -20 95 -21q47 0 78.5 30t62.5 120l55 157l-383 936h113l328 -827z" />
<glyph unicode="&#xfe;" horiz-adv-x="1177" d="M1096 471q0 -215 -129 -353t-338 -138q-231 0 -359 198v-567h-106v1804h106v-649q119 201 355 201q215 0 343 -140.5t128 -355.5zM983 471q0 172 -96 287.5t-262 115.5q-168 0 -263.5 -114.5t-95.5 -288.5q0 -170 95.5 -282.5t263.5 -112.5t263 111.5t95 283.5z" />
<glyph unicode="&#xff;" horiz-adv-x="890" d="M676 1274q0 -41 -25.5 -66.5t-62.5 -25.5q-35 0 -60.5 25.5t-25.5 66.5t25.5 66.5t60.5 25.5q37 0 62.5 -25.5t25.5 -66.5zM399 1274q0 -41 -25.5 -66.5t-62.5 -25.5q-35 0 -60.5 25.5t-25.5 66.5t25.5 66.5t60.5 25.5q37 0 62.5 -25.5t25.5 -66.5zM778 950h113 l-481 -1171q-74 -178 -213 -178l-115 24l20 103q37 -20 95 -21q47 0 78.5 30t62.5 120l55 157l-383 936h113l328 -827z" />
<glyph unicode="&#x152;" horiz-adv-x="2037" d="M1939 100v-100h-720v102q-182 -127 -426 -127q-291 0 -499 201t-208 528.5t208 528.5t499 201q233 0 426 -123v102h706v-100h-596v-512h559v-101h-559v-600h610zM1219 236v942q-176 158 -426 157q-244 0 -417 -172t-173 -456.5t173 -455.5t417 -171q254 0 426 156z" />
<glyph unicode="&#x153;" horiz-adv-x="1894" d="M1823 522l-6 -71h-773q8 -172 100.5 -273.5t252.5 -101.5q96 0 179 30.5t120 61.5l35 31l51 -76q-4 -6 -14.5 -15.5t-45 -34t-76.5 -44t-112 -34.5t-148 -15q-92 0 -168.5 28.5t-121.5 73.5t-68.5 80t-38.5 67q-59 -115 -167.5 -182t-254.5 -67q-205 0 -345 139t-140 352 t140 354.5t345 141.5q145 0 257 -70t167 -186q55 117 159.5 186.5t242.5 69.5q186 0 308 -126t122 -319zM1049 543h665q0 49 -18.5 104t-56 107.5t-103.5 86t-150 33.5q-160 0 -245.5 -105t-91.5 -226zM942 475q0 170 -102.5 284.5t-272.5 114.5q-168 0 -270 -114.5 t-102 -284.5t102 -284.5t270 -114.5q170 0 272.5 114.5t102.5 284.5z" />
<glyph unicode="&#x178;" horiz-adv-x="1116" d="M782 1694q0 -41 -25.5 -66.5t-60.5 -25.5q-37 0 -62.5 25.5t-25.5 66.5t25.5 66.5t62.5 25.5q35 0 60.5 -25.5t25.5 -66.5zM506 1694q0 -41 -25.5 -66.5t-60.5 -25.5q-37 0 -62.5 25.5t-25.5 66.5t25.5 66.5t62.5 25.5q35 0 60.5 -25.5t25.5 -66.5zM977 1413h129 l-494 -809v-604h-110v604l-492 809h127l420 -706z" />
<glyph unicode="&#x2c6;" horiz-adv-x="573" d="M317 1413l195 -297h-92l-133 215l-133 -215h-93l195 297h61z" />
<glyph unicode="&#x2dc;" horiz-adv-x="573" d="M506 1356l67 -21q-8 -74 -55 -115.5t-104 -41.5q-25 0 -49.5 6t-38 12t-30.5 16.5t-20 10.5l-26 16q-25 16 -49.5 25.5t-46.5 9.5q-37 0 -60.5 -25.5t-27.5 -60.5l-66 20q8 74 54 116t104 42q20 0 39.5 -3t35 -9t26.5 -13l24 -12q12 -6 14 -8l27 -16q25 -16 49 -25.5 t47 -9.5q37 0 59.5 26.5t26.5 59.5z" />
<glyph unicode="&#x2013;" horiz-adv-x="921" d="M922 614v-92h-922v92h922z" />
<glyph unicode="&#x2014;" horiz-adv-x="1638" d="M1638 614v-92h-1638v92h1638z" />
<glyph unicode="&#x2018;" horiz-adv-x="583" d="M338 1413h82l-123 -389h-123z" />
<glyph unicode="&#x2019;" horiz-adv-x="583" d="M287 1413h123l-164 -389h-82z" />
<glyph unicode="&#x201a;" horiz-adv-x="583" d="M287 154h123l-164 -390h-82z" />
<glyph unicode="&#x201c;" horiz-adv-x="890" d="M645 1413h82l-123 -389h-123zM338 1413h82l-123 -389h-123z" />
<glyph unicode="&#x201d;" horiz-adv-x="890" d="M594 1413h123l-164 -389h-82zM287 1413h123l-164 -389h-82z" />
<glyph unicode="&#x201e;" horiz-adv-x="890" d="M594 154h123l-164 -390h-82zM287 154h123l-164 -390h-82z" />
<glyph unicode="&#x2022;" horiz-adv-x="1024" d="M799 747.5q0 -114.5 -86 -200.5t-201 -86t-201 86t-86 200.5t86 200.5t201 86t201 -86t86 -200.5z" />
<glyph unicode="&#x2026;" horiz-adv-x="1894" d="M1649 78q0 -39 -27 -65.5t-65.5 -26.5t-64.5 26.5t-26 65.5t26 64.5t64.5 25.5t65.5 -25.5t27 -64.5zM1038 78q0 -39 -26.5 -65.5t-65.5 -26.5t-64.5 26.5t-25.5 65.5t25.5 64.5t64.5 25.5t65.5 -25.5t26.5 -64.5zM428 78q0 -39 -26.5 -65.5t-65.5 -26.5t-64.5 26.5 t-25.5 65.5t25.5 64.5t64.5 25.5t65.5 -25.5t26.5 -64.5z" />
<glyph unicode="&#x2039;" horiz-adv-x="583" d="M221 475l246 -325l-76 -56l-289 381l289 381l74 -57z" />
<glyph unicode="&#x203a;" horiz-adv-x="583" d="M190 856l291 -381l-291 -381l-71 58l241 323l-243 326z" />
<glyph unicode="&#x20ac;" d="M993 246l72 -62q-10 -18 -28.5 -42.5t-62.5 -67.5t-120 -71t-168 -28q-199 0 -331 153t-160 411h-144v96h135q-2 49 -2 80l2 80h-135v96h144q31 236 162.5 389.5t326.5 153.5q256 0 371 -185l-72 -71q-115 158 -303 157q-129 0 -232.5 -110.5t-136.5 -333.5h590v-96h-598 q-2 -49 -2 -80l2 -80h598v-96h-590q27 -217 127.5 -337t247.5 -120q198 0 307 164z" />
<glyph unicode="&#x2122;" horiz-adv-x="1689" d="M1509 1413l68 -799h-102l-52 666h-6l-229 -666h-78l-229 666h-7l-51 -666h-102l67 799h144l215 -635h4l215 635h143zM676 1413v-92h-236v-707h-102v707h-236v92h574z" />
<glyph unicode="&#xe000;" horiz-adv-x="950" d="M0 950h950v-950h-950v950z" />
<glyph unicode="&#xfb01;" horiz-adv-x="942" d="M813 1288q0 -37 -25.5 -62.5t-62.5 -25.5t-62.5 25.5t-25.5 62.5t25.5 62.5t62.5 25.5t62.5 -25.5t25.5 -62.5zM780 950v-950h-108v950h108zM573 1413l-10 -92q-51 20 -102 20q-72 0 -112 -38.5t-49 -88t-9 -129.5v-139h241v-96h-241v-850h-107v850h-143v96h143v129 q0 168 56 250q72 109 200 109q45 0 79 -5.5t44 -11.5z" />
<glyph unicode="&#xfb02;" horiz-adv-x="942" d="M778 1413v-1413h-108v1413h108zM573 1413l-10 -92q-51 20 -102 20q-72 0 -112 -38.5t-49 -88t-9 -129.5v-139h241v-96h-241v-850h-107v850h-143v96h143v129q0 168 56 250q72 109 200 109q45 0 79 -5.5t44 -11.5z" />
<glyph unicode="&#xfb03;" horiz-adv-x="1417" d="M1065 1413l-10 -92q-51 20 -103 20q-72 0 -111.5 -38.5t-49 -88t-9.5 -129.5v-139h242v-96h-242v-850h-106v850h-385v-850h-107v850h-143v96h143v129q0 168 56 250q72 109 200 109q45 0 79 -5.5t44 -11.5l10 -4l-10 -92q-51 20 -102 20q-72 0 -112 -38.5t-49 -88 t-9 -129.5v-139h385v129q0 168 55 250q72 109 201 109q45 0 78.5 -5.5t44.5 -11.5zM1253 950v-950h-106v950h106zM1288 1288q0 -37 -25.5 -62.5t-62.5 -25.5t-62.5 25.5t-25.5 62.5t25.5 62.5t62.5 25.5t62.5 -25.5t25.5 -62.5z" />
<glyph unicode="&#xfb04;" horiz-adv-x="1417" d="M1065 1413l-10 -92q-51 20 -103 20q-72 0 -111.5 -38.5t-49 -88t-9.5 -129.5v-139h242v-96h-242v-850h-106v850h-385v-850h-107v850h-143v96h143v129q0 168 56 250q72 109 200 109q45 0 79 -5.5t44 -11.5l10 -4l-10 -92q-51 20 -102 20q-72 0 -112 -38.5t-49 -88 t-9 -129.5v-139h385v129q0 168 55 250q72 109 201 109q45 0 78.5 -5.5t44.5 -11.5zM1253 1413v-1413h-106v1413h106z" />
</font>
</defs>
</svg>
